Loading...
Error

Скачать Миссия невыполнима / Mission: Impossible (Брайан Де Пальма) [1996, боевик, триллер, приключения, HDRip] [AVO (А.Гаврилов)] торрент без регистрации

 
Статистика раздачи
Размер:  1,46 GB   |    Скачан:  137 раз
Сидов:  1  [  0 KB/s  ]  
 
Автор Сообщение

МихаНЕзатор

[] 

Миссия невыполнима / Mission: Impossible
(1996) HDRip


Информация о фильме
Название: Миссия: невыполнима
Оригинальное название: Mission: Impossible
Производство: США
Жанр: боевик, триллер, приключения
Продолжительность: 01:50:16
Перевод: Авторский (одноголосый, закадровый) А.Гаврилов
Субтитры: отсутствуют

Режиссер: Брайан Де Пальма
Актеры: Том Круз, Джон Войт, Эммануэль Беар, Генри Черны, Жан Рено, Винг Рэймс, Кристин Скотт Томас, Ванесса Рэдгрейв, Дэйл Дай, Марсель Юрес

Описание: Агент ЦРУ Итан Хант оказался в положении подозреваемого в предательстве «крота», из-за которого погибли несколько членов его команды, включая руководителя группы Джима Фелпса. В живых осталась еще только коллега Ханта — жена Фелпса агент Клэр. Чтобы снять с себя обвинения в предательстве, Ханту надо найти настоящего «крота».



Качество: HDRip
Видео: MPEG4, XviD, 688x288 (2.35:1), 23.976 fps, 1 691 Kbps (0.356 bit/pixel)
Аудио: AC-3, 48.0 KHz, 2 ch, 192 Kbps, CBR
Релиз от: FAGOT100

АНОНСЫ ПОПУЛЯРНЫХ РАЗДАЧ

Код:


Формат                                   : AVI
Формат/Информация                        : Audio Video Interleave
Размер файла                             : 1,46 Гбайт
Продолжительность                        : 1 ч. 50 м.
Общий поток                              : 1893 Кбит/сек
Программа кодирования                    : VirtualDubMod 1.5.10.3 | www.virtualdub-fr.org || (build 2550/release)
Библиотека кодирования                   : VirtualDubMod build 2550/release

Видео
Идентификатор                            : 0
Формат                                   : MPEG-4 Visual
Профиль формата                          : Advanced Simple@L5
Параметр BVOP формата                    : 2
Параметр QPel формата                    : Нет
Параметр GMC формата                     : Без точки перехода
Параметр матрицы формата                 : Выборочная
Идентификатор кодека                     : XVID
Идентификатор кодека/Подсказка           : XviD
Продолжительность                        : 1 ч. 50 м.
Битрейт                                  : 1691 Кбит/сек
Ширина                                   : 688 пикселей
Высота                                   : 288 пикселей
Соотношение сторон                       : 2,40:1
Частота кадров                           : 23,976 кадра/сек
Цветовое пространство                    : YUV
Субдискретизация насыщенности            : 4:2:0
Битовая глубина                          : 8 бит
Тип развёртки                            : Прогрессивная
Метод сжатия                             : С потерями
Бит/(Пиксели*Кадры)                      : 0.356
Размер потока                            : 1,30 Гбайт (89%)
Библиотека кодирования                   : XviD 73

Аудио
Идентификатор                            : 1
Формат                                   : AC-3
Формат/Информация                        : Audio Coding 3
Расширение режима                        : CM (complete main)
Параметр Endianness формата              : Big
Идентификатор кодека                     : 2000
Продолжительность                        : 1 ч. 50 м.
Вид битрейта                             : Постоянный
Битрейт                                  : 192 Кбит/сек
Каналы                                   : 2 канала
Расположение каналов                     : Front: L R
Частота                                  : 48,0 КГц
Битовая глубина                          : 16 бит
Метод сжатия                             : С потерями
Размер потока                            : 151 Мбайт (10%)
Выравнивание                             : Разделение по промежуткам
Продолжительность промежутка             : 42  мс. (1,00 видеокадр)
Время предзагрузки промежутка            : 500  мс.



Скачать Миссия.невыполнима.Mission.Impossible.(Брайан.Де.Пальма).[1996.боевик.триллер.приключения.HDRip].[AVO.(А.Гаврилов)].torrent без регистрации
Золото ЗОЛОТАЯ РАЗДАЧА! СКАЧАННОЕ НЕ ЗАСЧИТЫВАЕТСЯ! Золото
Дата: Зарегистрирован   [ Тип: внутренний ] Как тут cкачать?
MAGNET ссылка
MAGNET ссылка


Скачать .torrent

15 KB

Статус: проверено DHT
Скачан: торрент - 137 раз, раздача полностью - 74 раз
Размер: 1,46 GB
Оценка:  5 (Голосов: 1)
Поблагодарили: 0
Поделиться ссылкой на эту раздачу с друзьями:
В контактеFacebookОдноклассникиTwitterLivejournalМой МирLiveinternet
 

 
Показать сообщения:    


Вы не можете начинать темы
Вы не можете отвечать на сообщения
Вы не можете редактировать свои сообщения
Вы не можете удалять свои сообщения
Вы не можете голосовать в опросах
Вы не можете прикреплять файлы к сообщениям
Вы можете скачивать файлы