Loading...
Error

Скачать Миссия невыполнима 3 / Mission: Impossible 3 (Джей Джей Абрамс) [2006, боевик, триллер, приключения, HDRip] [AVO (А.Гаврилов)] торрент без регистрации

 
Статистика раздачи
Размер:  1,46 GB   |    Скачан:  139 раз
Сидов:  1  [  0 KB/s  ]  
 
Автор Сообщение

МихаНЕзатор

[] 

Информация о фильме
Название: Миссия невыполнима 3
Оригинальное название: Mission: Impossible III
Год выхода: 2006
Производство: США, Германия, Китай
Жанр: боевик, триллер, приключения
Перевод: Авторский (одноголосый, закадровый) А.Гаврилов
Субтитры: отсутствуют

Режиссер: Джей Джей Абрамс
Актеры: Том Круз, Филип Сеймур Хоффман, Винг Рэймс, Билли Крудап, Мишель Монахэн, Джонатан Рис-Майерс, Кери Рассел, Мэгги Кью, Саймон Пегг, Эдди Марсан

Описание фильма: Суперагент Итан Хант решил расстаться с оперативной работой и заняться подготовкой курсантов. Он даже решил жениться на привлекательной, ни о чём не ведающей Джулии. Руководство ЦРУ просит его принять участие в последней операции: спасении его бывшей ученицы Линдси Феррис из лап торговца оружием Оуэна Дэвиана. Мог ли Итан предположить, что за этим заданием последует целая череда смертельно опасных миссий в Ватикане, Нью-Йорке и Шанхае?



Продолжительность: 02:05:24
Качество: HDRip
Видео: MPEG4, XviD, 688x288 (2.35:1), 23.976 fps, 1 462 Kbps (0.308 bit/pixel)
Аудио: AC-3, 48.0 KHz, 2 ch, 192 Kbps, CBR
Релиз от: FAGOT100

АНОНСЫ ПОПУЛЯРНЫХ РАЗДАЧ
Формат : AVI
Формат/Информация : Audio Video Interleave
Размер файла : 1,46 Гбайт
Продолжительность : 2 ч. 5 м.
Общий поток : 1664 Кбит/сек
Программа кодирования : VirtualDubMod 1.5.10.3 | www.virtualdub-fr.org || (build 2550/release)
Библиотека кодирования : VirtualDubMod build 2550/release

Видео
Идентификатор : 0
Формат : MPEG-4 Visual
Профиль формата : Advanced Simple@L5
Параметр BVOP формата : 2
Параметр QPel формата : Нет
Параметр GMC формата : Без точки перехода
Параметр матрицы формата : Выборочная
Идентификатор кодека : XVID
Идентификатор кодека/Подсказка : XviD
Продолжительность : 2 ч. 5 м.
Битрейт : 1462 Кбит/сек
Ширина : 688 пикселей
Высота : 288 пикселей
Соотношение сторон : 2,40:1
Частота кадров : 23,976 кадра/сек
Цветовое пространство : YUV
Субдискретизация насыщенности : 4:2:0
Битовая глубина : 8 бит
Тип развёртки : Прогрессивная
Метод сжатия : С потерями
Бит/(Пиксели*Кадры) : 0.308
Размер потока : 1,28 Гбайт (88%)
Библиотека кодирования : XviD 73

Аудио
Идентификатор : 1
Формат : AC-3
Формат/Информация : Audio Coding 3
Расширение режима : CM (complete main)
Параметр Endianness формата : Big
Идентификатор кодека : 2000
Продолжительность : 2 ч. 5 м.
Вид битрейта : Постоянный
Битрейт : 192 Кбит/сек
Каналы : 2 канала
Расположение каналов : Front: L R
Частота : 48,0 КГц
Битовая глубина : 16 бит
Метод сжатия : С потерями
Размер потока : 172 Мбайт (12%)
Выравнивание : Разделение по промежуткам
Продолжительность промежутка : 42 мс. (1,00 видеокадр)
Время предзагрузки промежутка : 500 мс.



Скачать Миссия.невыполнима.3.Mission.Impossible.3.(Джей.Джей.Абрамс).[2006.боевик.триллер.приключения.HDRip].[AVO.(А.Гаврилов)].torrent без регистрации
Золото ЗОЛОТАЯ РАЗДАЧА! СКАЧАННОЕ НЕ ЗАСЧИТЫВАЕТСЯ! Золото
Дата: Зарегистрирован   [ Тип: внутренний ] Как тут cкачать?
MAGNET ссылка
MAGNET ссылка


Скачать .torrent

15 KB

Статус: проверено DHT
Скачан: торрент - 139 раз, раздача полностью - 70 раз
Размер: 1,46 GB
Оценка:  - (Голосов: 0)
Поблагодарили: 1
Поделиться ссылкой на эту раздачу с друзьями:
В контактеFacebookОдноклассникиTwitterLivejournalМой МирLiveinternet
 

 
Показать сообщения:    


Вы не можете начинать темы
Вы не можете отвечать на сообщения
Вы не можете редактировать свои сообщения
Вы не можете удалять свои сообщения
Вы не можете голосовать в опросах
Вы не можете прикреплять файлы к сообщениям
Вы можете скачивать файлы