Loading...
Error

Скачать Жаркое американское лето: Первый день лагеря / Wet Hot American Summer: First Day of Camp (сезон 01) (Дэвид Уэйн) [2015, комедия, WEBRip] [720p] [MVO (NewStudio)]+[Eng] торрент без регистрации

 
Статистика раздачи
Размер:  8,18 GB   |    Скачан:  120 раз
Сидов:  1  [  0 KB/s  ]  
 
Автор Сообщение

МихаНЕзатор

[] 

Информация о сериале
Название: Жаркое американское лето: Первый день лагеря
Оригинальное название: Wet Hot American Summer: First Day of Camp
Год выхода: 2015
Жанр: комедия
Авторы идеи: Дэвид Уэйн /David Wain/, Майкл Шоуолтер /Michael Showalter/
Режиссер: Дэвид Уэйн /David Wain/

В ролях: Элизабет Бэнкс /Elizabeth Banks/, Джанин Гарофало /Janeane Garofalo/, Пол Радд /Paul Rudd/, Маргерит Моро /Marguerite Moreau/, Джо Ло Трульо /Joe Lo Truglio/, Эми Полер /Amy Poehler/, Брэдли Купер /Bradley Cooper/, Зак Орт /Zak Orth/, Майкл Йен Блэк /Michael Ian Black/, Джейсон Шварцман /Jason Schwartzman/, Х. Джон Бенжамин /H. Jon Benjamin/, Лэйк Белл /Lake Bell/ и др.

О сериале: Действие сериала разворачивается в 1981 году. Главные герои сериала — обитатели летнего лагеря, которым предстоит пережить самые непростые каникулы в их жизни…

Релиз от:

Страна: США
Студии: Showalter Wain / 20th Century Fox Television / Abominable Pictures / Principato-Young Entertainment
Продолжительность: 8 x ~ 00:27:00
Перевод: Профессиональный (многоголосый, закадровый) - NewStudio

Перевод: Александра Цернант, Григорий Сенин, Ирина Гвозденко

Файл
Кодек: H.264
Качество: WEBRip 720p
Видео: 1280x720 at 23.976 fps, x264@L4.1, crf, ~4000 kbps avg
Аудио#1: Russian: 48 kHz, AC3, 3/2 (L,C,R,l,r) + LFE ch, ~384.00 kbps avg |Многоголосый закадровый, NewStudio|
Аудио#2: English: 48 kHz, AC3, 3/2 (L,C,R,l,r) + LFE ch, ~640.00 kbps avg |Оригинал|
Субтитры: none

АНОНСЫ ПОПУЛЯРНЫХ РАЗДАЧ
General
Complete name : Wet.Hot.American.Summer.s01e01.720p.WEB.NewStudio.TV.mkv
Format : Matroska
Format version : Version 4 / Version 2
File size : 974 MiB
Duration : 27mn 0s
Overall bit rate : 5 041 Kbps
Encoded date : UTC 2015-07-31 22:45:37
Writing application : mkvmerge v8.2.0 ('World of Adventure') 32bit
Writing library : libebml v1.3.1 + libmatroska v1.4.2
DURATION : 00:27:00.032000000
NUMBER_OF_FRAMES : 50626
NUMBER_OF_BYTES : 77761536
_STATISTICS_WRITING_APP : mkvmerge v8.2.0 ('World of Adventure') 32bit
_STATISTICS_WRITING_DATE_UTC : 2015-07-31 22:45:37
_STATISTICS_TAGS : BPS DURATION NUMBER_OF_FRAMES NUMBER_OF_BYTES

Video
ID : 1
Format : AVC
Format/Info : Advanced Video Codec
Format profile : High@L4.1
Format settings, CABAC : Yes
Format settings, ReFrames : 5 frames
Codec ID : V_MPEG4/ISO/AVC
Duration : 27mn 0s
Bit rate : 3 917 Kbps
Width : 1 280 pixels
Height : 674 pixels
Display aspect ratio : 1.899
Frame rate mode : Constant
Frame rate : 23.976 fps
Color space : YUV
Chroma subsampling : 4:2:0
Bit depth : 8 bits
Scan type : Progressive
Bits/(Pixel*Frame) : 0.189
Stream size : 756 MiB (78%)
Writing library : x264 core 146 r2538 121396c
Encoding settings : cabac=1 / ref=5 / deblock=1:0:0 / analyse=0x3:0x113 / me=umh / subme=8 / psy=1 / psy_rd=1.00:0.00 / mixed_ref=1 / me_range=16 / chroma_me=1 / trellis=1 / 8x8dct=1 / cqm=0 / deadzone=21,11 / fast_pskip=1 / chroma_qp_offset=-2 / threads=12 / lookahead_threads=2 / sliced_threads=0 / nr=0 / decimate=1 / interlaced=0 / bluray_compat=0 / constrained_intra=0 / bframes=3 / b_pyramid=2 / b_adapt=2 / b_bias=0 / direct=3 / weightb=1 / open_gop=0 / weightp=2 / keyint=240 / keyint_min=24 / scenecut=40 / intra_refresh=0 / rc_lookahead=50 / rc=crf / mbtree=1 / crf=18.0 / qcomp=0.60 / qpmin=0 / qpmax=69 / qpstep=4 / ip_ratio=1.40 / aq=1:1.00
Default : Yes
Forced : No
Color range : Limited
Matrix coefficients : BT.709

Audio #1
ID : 2
Format : AC-3
Format/Info : Audio Coding 3
Mode extension : CM (complete main)
Format settings, Endianness : Big
Codec ID : A_AC3
Duration : 27mn 0s
Bit rate mode : Constant
Bit rate : 384 Kbps
Channel(s) : 6 channels
Channel positions : Front: L C R, Side: L R, LFE
Sampling rate : 48.0 KHz
Compression mode : Lossy
Stream size : 74.2 MiB (8%)
Title : NewStudio.TV
Language : Russian
Default : Yes
Forced : No

Audio #2
ID : 3
Format : AC-3
Format/Info : Audio Coding 3
Mode extension : CM (complete main)
Format settings, Endianness : Big
Codec ID : A_AC3
Duration : 27mn 0s
Bit rate mode : Constant
Bit rate : 640 Kbps
Channel(s) : 6 channels
Channel positions : Front: L C R, Side: L R, LFE
Sampling rate : 48.0 KHz
Compression mode : Lossy
Stream size : 124 MiB (13%)
Language : English
Default : No
Forced : No
01. Campers Arrive / Прибытие гостей
02. Lunch / Обед
03. Activities / Занятия
04. Auditions / Прослушивание
05. Dinner / Ужин
06. Electro/City / Представление
07. Staff Party / Вожатые отрываются
08. Day Is Done / Конец дня



Скачать Жаркое.американское.лето.Первый.день.лагеря.Wet.Hot.American.Summer.First.Day.of.Camp.(сезон.01).(Дэвид.Уэйн).[2015.комедия.WEBRip].[720p].[MVO.(NewStudio)]+[Eng].torrent без регистрации
Золото ЗОЛОТАЯ РАЗДАЧА! СКАЧАННОЕ НЕ ЗАСЧИТЫВАЕТСЯ! Золото
Дата: Зарегистрирован   [ Тип: внутренний ] Как тут cкачать?
MAGNET ссылка
MAGNET ссылка


Скачать .torrent

42 KB

Статус: проверено DHT
Скачан: торрент - 120 раз, раздача полностью - 1 раз
Размер: 8,18 GB
Оценка:  - (Голосов: 0)
Поблагодарили: 0
Поделиться ссылкой на эту раздачу с друзьями:
В контактеFacebookОдноклассникиTwitterLivejournalМой МирLiveinternet
 

 
Показать сообщения:    


Вы не можете начинать темы
Вы не можете отвечать на сообщения
Вы не можете редактировать свои сообщения
Вы не можете удалять свои сообщения
Вы не можете голосовать в опросах
Вы не можете прикреплять файлы к сообщениям
Вы можете скачивать файлы