Loading...
Error

Скачать Вакансия на жертву 2: Первый дубль / Vacancy 2: The First Cut (Эрик Бросс) [2008, ужасы, триллер, WEB-DLRip-AVC] [MVO]+[Sub]x2 торрент без регистрации

 
Статистика раздачи
Размер:  1,46 GB   |    Скачан:  113 раз
Сидов:  1  [  0 KB/s  ]  
 
Автор Сообщение

Marsianka

[] 

Информация о фильме
Название: Вакансия на жертву 2: Первый дубль
Оригинальное название: Vacancy 2: The First Cut
Год выхода: 2008
Жанр: ужасы, триллер
Режиссер: Эрик Бросс
В ролях: Агнес Брукнер, Дэвид Москоу, Скотт Дж. Андерсон, Эрджей Смит, Тревор Райт, Биу Биллингсли, Брайан Клагман, Хуанита Дженнингс, Нельсон Ли, Гвендолин Йо, Лола Дэвидсон, Крис Нельсон

О фильме:
Владельцы и по совместительству служащие одного небольшого придорожного отеля, развлекаются тем, что установили скрытые камеры в комнатах. Ведь когда в мотель приезжают влюбленные парочки, за ними так забавно наблюдать, а потом можно и продать это видео для любителей подобной клубнички. Каждый развлекается как умеет. Вот и серийный-маньяк убийца заглянул на огонек, чтобы нескучно, в женской компании, провести вечер…
Убийство девушки маньяком оказалось заснято на пленку, но хозяева отеля не торопятся отдавать улики полиции, они решают поставить дело на поток и заработать на этом. Трое друзей, решивших остановиться в этом отеле на ночь и не подозревают, что они попали в западню и окружающее их — декорации к жуткому сценарию убийства, где ребятам уготована роль жертв…




Страна: США
Студия: Stage 6 Films
Продолжительность: 01:25:59
Перевод: Профессиональный (многоголосый закадровый) ВидеоСервис
Cубтитрs: Русские, английские

Файл
Качество: WEB-DLRip-AVC
Видео: AVC, 1024x576 (16:9), 23.976 fps, 1 981 Kbps (0.140 bit/pixel)
Аудио: AC-3, 48.0 KHz, 6 ch, 448 Kbps, CBR (Russian)
Формат : Matroska
Версия формата : Version 2
Размер файла : 1,46 Гбайт
Продолжительность : 1 ч. 25 м.
Общий поток : 2430 Кбит/сек
Название фильма : Vacancy 2: The First Cut (2008)
Дата кодирования : UTC 2015-04-22 13:40:01
Программа кодирования : mkvmerge v5.3.0 ('I could have danced') built on Feb 9 2012 10:38:07
Библиотека кодирования : libebml v1.2.3 + libmatroska v1.3.0
Attachment : Yes

Видео
Идентификатор : 1
Формат : AVC
Формат/Информация : Advanced Video Codec
Профиль формата : High@L4.1
Параметр CABAC формата : Да
Параметр ReFrames формата : 10 кадров
Идентификатор кодека : V_MPEG4/ISO/AVC
Продолжительность : 1 ч. 25 м.
Битрейт : 1981 Кбит/сек
Ширина : 1024 пикселя
Высота : 576 пикселей
Соотношение сторон : 16:9
Режим частоты кадров : Постоянный
Частота кадров : 23,976 кадра/сек
Цветовое пространство : YUV
Субдискретизация насыщенности : 4:2:0
Битовая глубина : 8 бит
Тип развёртки : Прогрессивная
Бит/(Пиксели*Кадры) : 0.140
Размер потока : 1,16 Гбайт (80%)
Библиотека кодирования : x264 core 142 r2431 ac76440
Настройки программы : cabac=1 / ref=10 / deblock=1:-2:-2 / analyse=0x3:0x133 / me=umh / subme=10 / psy=1 / psy_rd=1.00:0.00 / mixed_ref=1 / me_range=32 / chroma_me=1 / trellis=2 / 8x8dct=1 / cqm=0 / deadzone=21,11 / fast_pskip=1 / chroma_qp_offset=-2 / threads=12 / lookahead_threads=2 / sliced_threads=0 / nr=0 / decimate=0 / interlaced=0 / bluray_compat=0 / constrained_intra=0 / bframes=8 / b_pyramid=2 / b_adapt=2 / b_bias=0 / direct=3 / weightb=1 / open_gop=0 / weightp=2 / keyint=240 / keyint_min=23 / scenecut=40 / intra_refresh=0 / rc=2pass / mbtree=0 / bitrate=1981 / ratetol=1.0 / qcomp=0.60 / qpmin=0 / qpmax=69 / qpstep=4 / cplxblur=20.0 / qblur=0.5 / ip_ratio=1.40 / pb_ratio=1.30 / aq=1:1.00
Язык : English
Default : Да
Forced : Нет

Аудио
Идентификатор : 2
Формат : AC-3
Формат/Информация : Audio Coding 3
Расширение режима : CM (complete main)
Параметр Endianness формата : Big
Идентификатор кодека : A_AC3
Продолжительность : 1 ч. 25 м.
Вид битрейта : Постоянный
Битрейт : 448 Кбит/сек
Каналы : 6 каналов
Расположение каналов : Front: L C R, Side: L R, LFE
Частота : 48,0 КГц
Битовая глубина : 16 бит
Метод сжатия : С потерями
Размер потока : 276 Мбайт (18%)
Заголовок : AC3 6ch 448kbps - многоголосый (DVD5.R5 - ВидеоСервис, 2009)
Язык : Russian
Default : Да
Forced : Нет

Текст #1
Идентификатор : 3
Формат : UTF-8
Идентификатор кодека : S_TEXT/UTF8
Идентификатор кодека/Информация : UTF-8 Plain Text
Язык : Russian
Default : Нет
Forced : Нет

Текст #2
Идентификатор : 4
Формат : UTF-8
Идентификатор кодека : S_TEXT/UTF8
Идентификатор кодека/Информация : UTF-8 Plain Text
Язык : English
Default : Нет
Forced : Нет

Меню
00:00:00.000 : en:Chapter 1
00:03:16.000 : en:Chapter 2
00:04:31.000 : en:Chapter 3
00:07:52.000 : en:Chapter 4
00:09:43.000 : en:Chapter 5
00:12:49.000 : en:Chapter 6
00:15:17.000 : en:Chapter 7
00:18:40.000 : en:Chapter 8
00:20:53.000 : en:Chapter 9
00:24:21.000 : en:Chapter 10
00:28:44.000 : en:Chapter 11
00:32:39.000 : en:Chapter 12
00:36:49.000 : en:Chapter 13
00:40:21.000 : en:Chapter 14
00:42:06.000 : en:Chapter 15
00:45:49.000 : en:Chapter 16
00:48:32.000 : en:Chapter 17
00:51:39.000 : en:Chapter 18
00:54:29.000 : en:Chapter 19
00:57:19.000 : en:Chapter 20
01:00:12.000 : en:Chapter 21
01:02:41.000 : en:Chapter 22
01:06:28.000 : en:Chapter 23
01:08:48.000 : en:Chapter 24
01:11:25.000 : en:Chapter 25
01:14:57.000 : en:Chapter 26
01:18:16.000 : en:Chapter 27
01:19:50.000 : en:Chapter 28



Скачать Вакансия.на.жертву.2.Первый.дубль.Vacancy.2.The.First.Cut.(Эрик.Бросс).[2008.ужасы.триллер.WEB-DLRip-AVC].[MVO]+[Sub]x2.torrent без регистрации
Золото ЗОЛОТАЯ РАЗДАЧА! СКАЧАННОЕ НЕ ЗАСЧИТЫВАЕТСЯ! Золото
Дата: Зарегистрирован   [ Тип: внутренний ] Как тут cкачать?
MAGNET ссылка
MAGNET ссылка


Скачать .torrent

15 KB

Статус: проверено DHT
Скачан: торрент - 113 раз, раздача полностью - 10 раз
Размер: 1,46 GB
Оценка:  - (Голосов: 0)
Поблагодарили: 1
Поделиться ссылкой на эту раздачу с друзьями:
В контактеFacebookОдноклассникиTwitterLivejournalМой МирLiveinternet
 

 
Показать сообщения:    


Вы не можете начинать темы
Вы не можете отвечать на сообщения
Вы не можете редактировать свои сообщения
Вы не можете удалять свои сообщения
Вы не можете голосовать в опросах
Вы не можете прикреплять файлы к сообщениям
Вы можете скачивать файлы