Loading...
Error

Скачать От нуля до шестидесяти / На больших скоростях / Zero to Sixty (Дон Уис / Don Weis) [1978, комедия, HDTVRip-AVC] 2x[AVO] (А. Михалев, М.Иванов) торрент без регистрации

 
Статистика раздачи
Размер:  1,46 GB   |    Скачан:  104 раза
Сидов:  1  [  0 KB/s  ]  
 
Автор Сообщение

leon030982

[] 

От нуля до шестидесяти / На больших скоростях
Zero to Sixty


Страна: США
Жанр: Комедия
Год выпуска: 1978
Продолжительность: 01:36:51
Перевод #1: Авторский (одноголосый, закадровый) [А. Михалев]
Перевод #2: Авторский (одноголосый, закадровый) [М. Иванов]
Cубтитры: нет

Режиссер: Дон Уис / Don Weis
В ролях: Даррен МакГейвин / Darren McGavin ... Michael Nolan, Сильвия Майлз / Sylvia, Miles ... Flo Ames, Джоан Коллинз / Joan Collins ... Gloria Martine, Денис Никерсон / Denise Nickerson ...'Larry' Wilde, Билл Хадсон / Bill Hudson ... Eddie, Бретт Хадсон / Brett Hudson ... Harry, Марк Хадсон / Mark Hudson ... Sammy, Вито Скотти / Vito Scotti ... Benny, Лоррэйн Гари / Lorraine Gary ... Billy-Jon, Дэвид Хаддлстон / David Huddleston ... Harold Finch
Описание: Недавно разведшийся Майкл получает работу в компании, занимающейся правами собственности на автомобили, после того, как он узнал, что его собственный автомобиль был у него изъят, потому что его бывшая жена не внесла вовремя деньги...



Качество видео: HDTVRip
Исходник: HDTV 1080i
Формат видео: MKV
Видео кодек: AVC
Аудио кодек: AC3
Видео: 720x400 (16:9), 25.000 fps, ~1 767 Kbps avg, 0.24 bit/pixel
Аудио# 1: 48 kHz, AC3 Dolby Digital, 1/0 (C) ch, ~192 kbps avg (А. Михалев) Спасибо Nekontroliruemij_devil
Аудио# 2: 48 kHz, AC3 Dolby Digital, 1/0 (C) ch, ~192 kbps avg (М. Иванов) Спасибо 21Sepsis
General
Unique ID : 250890522965273714782459297172290262089 (0xBCBFC1D0EC9491969645680A376BD449)
Complete name : D:\Ot 0 do 60_HDTVRip.mkv
Format : Matroska
Format version : Version 4 / Version 2
File size : 1.46 GiB
Duration : 1h 36mn
Overall bit rate : 2 153 Kbps
Encoded date : UTC 2013-11-20 13:19:27
Writing application : mkvmerge v6.5.0 ('Isn't she lovely') built on Oct 20 2013 12:50:05
Writing library : libebml v1.3.0 + libmatroska v1.4.1
Video
ID : 1
Format : AVC
Format/Info : Advanced Video Codec
Format profile : High@L4.1
Format settings, CABAC : Yes
Format settings, ReFrames : 15 frames
Codec ID : V_MPEG4/ISO/AVC
Duration : 1h 36mn
Bit rate : 1 767 Kbps
Width : 720 pixels
Height : 400 pixels
Display aspect ratio : 16:9
Frame rate mode : Constant
Frame rate : 25.000 fps
Color space : YUV
Chroma subsampling : 4:2:0
Bit depth : 8 bits
Scan type : Progressive
Bits/(Pixel*Frame) : 0.245
Stream size : 1.17 GiB (80%)
Writing library : x264 core 130 r2273 b3065e6
Encoding settings : cabac=1 / ref=15 / deblock=1:-1:-1 / analyse=0x3:0x133 / me=esa / subme=11 / psy=1 / psy_rd=1.00:0.15 / mixed_ref=1 / me_range=32 / chroma_me=1 / trellis=2 / 8x8dct=1 / cqm=0 / deadzone=21,11 / fast_pskip=0 / chroma_qp_offset=-3 / threads=6 / lookahead_threads=1 / sliced_threads=0 / nr=0 / decimate=1 / interlaced=0 / bluray_compat=0 / constrained_intra=0 / bframes=5 / b_pyramid=2 / b_adapt=2 / b_bias=0 / direct=3 / weightb=1 / open_gop=0 / weightp=2 / keyint=250 / keyint_min=25 / scenecut=40 / intra_refresh=0 / rc_lookahead=50 / rc=2pass / mbtree=1 / bitrate=1767 / ratetol=1.0 / qcomp=0.60 / qpmin=0 / qpmax=69 / qpstep=4 / cplxblur=20.0 / qblur=0.5 / ip_ratio=1.40 / aq=1:1.00
Language : English
Default : Yes
Forced : No
Audio #1
ID : 2
Format : AC-3
Format/Info : Audio Coding 3
Mode extension : CM (complete main)
Format settings, Endianness : Big
Codec ID : A_AC3
Duration : 1h 36mn
Bit rate mode : Constant
Bit rate : 192 Kbps
Channel count : 1 channel
Channel positions : Front: C
Sampling rate : 48.0 KHz
Bit depth : 16 bits
Compression mode : Lossy
Stream size : 133 MiB (9%)
Title : Mikhalev
Language : Russian
Default : Yes
Forced : No
Audio #2
ID : 3
Format : AC-3
Format/Info : Audio Coding 3
Mode extension : CM (complete main)
Format settings, Endianness : Big
Codec ID : A_AC3
Duration : 1h 36mn
Bit rate mode : Constant
Bit rate : 192 Kbps
Channel count : 1 channel
Channel positions : Front: C
Sampling rate : 48.0 KHz
Bit depth : 16 bits
Compression mode : Lossy
Stream size : 133 MiB (9%)
Title : Ivanov
Language : Russian
Default : No
Forced : No



Скачать От.нуля.до.шестидесяти.На.больших.скоростях.Zero.to.Sixty.(Дон.Уис.Don.Weis).[1978.комедия.HDTVRip-AVC].2x[AVO].(А.Михалев.М.Иванов).torrent без регистрации
Золото ЗОЛОТАЯ РАЗДАЧА! СКАЧАННОЕ НЕ ЗАСЧИТЫВАЕТСЯ! Золото
Дата: Зарегистрирован   [ Тип: внутренний ] Как тут cкачать?
MAGNET ссылка
MAGNET ссылка


Скачать .torrent

15 KB

Статус: проверено DHT
Скачан: торрент - 104 раз, раздача полностью - 10 раз
Размер: 1,46 GB
Оценка:  5 (Голосов: 1)
Поблагодарили: 2
Поделиться ссылкой на эту раздачу с друзьями:
В контактеFacebookОдноклассникиTwitterLivejournalМой МирLiveinternet
 

 
Показать сообщения:    


Вы не можете начинать темы
Вы не можете отвечать на сообщения
Вы не можете редактировать свои сообщения
Вы не можете удалять свои сообщения
Вы не можете голосовать в опросах
Вы не можете прикреплять файлы к сообщениям
Вы можете скачивать файлы