Loading...
Error

Скачать 8 голов в одной сумке / 8 Heads in a Duffel Bag (Том Шульман) [1997, комедия, криминал, HDTVRip] [DVO]+[AVO] торрент без регистрации

 
Статистика раздачи
Размер:  1,46 GB   |    Скачан:  112 раз
Сидов:  1  [  0 KB/s  ]  
 
Автор Сообщение

Marsianka

[] 

Информация о фильме
Название: 8 голов в одной сумке
Оригинальное название: 8 Heads in a Duffel Bag
Год выхода: 1997
Жанр: комедия, криминал
Режиссер: Том Шульман / Tom Schulman
В ролях: Кристи Суонсон, Энди Комю, Джордж Хэмилтон, Эрнестин Мерсер, Тодд Луисо, Дайэн Кэннон, Дэвид Спейд, Джо Пеши, Энтони Мангано, Джо Басиле

О фильме:
Томми Спинелли - наемный убийца, работающий на мафию. Убив по заказу восемь человек на тихоокеанском побережье Америки, он должен доставить их головы в Нью - Йорк, чтобы показать заказчику.
В аэропорту происходит классическая путаница с багажом, и сумка с головами попадает в руки влюбленной пары. Мафия дает Спинелли два дня на то, чтобы он нашел пропажу. Томми вынужден мчаться за влюбленными и своей сумкой в Мехико.



Страна: США, Великобритания
Продолжительность: 01:35:12
Перевод: Профессиональный (двухголосый, закадровый) Гланц и Королева, Авторский (одноголосый закадровый) Горчаков

Файл
Кодек: XviD
Качество: HDTVRip
Видео: 720x400, 23.976 fps, XviD build 73 ~1796 kbps
Аудио 1: Russian; 48 kHz, AC3 Dolby Digital, 2/0 (L,R) ch, ~192.00 kbps....DVO Гланц и Королева
Аудио 2: Russian; 48 kHz, AC3 Dolby Digital, 2/0 (L,R) ch, ~192.00 kbps....AVO Горчаков
Общее
Полное имя : 8.Heads.in.a.Duffel.Bag.1997.HDTVRip.avi
Формат : AVI
Формат/Информация : Audio Video Interleave
Размер файла : 1,46 Гбайт
Продолжительность : 1 ч. 35 м.
Общий поток : 2194 Кбит/сек
Программа кодирования : VirtualDubMod 1.5.10.2 (build 2542/release)
Библиотека кодирования : VirtualDubMod build 2542/release

Видео
Идентификатор : 0
Формат : MPEG-4 Visual
Профиль формата : Advanced Simple@L5
Параметр BVOP формата : 1
Параметр QPel формата : Нет
Параметр GMC формата : Без точки перехода
Параметр матрицы формата : Выборочная
Идентификатор кодека : XVID
Идентификатор кодека/Подсказка : XviD
Продолжительность : 1 ч. 35 м.
Битрейт : 1796 Кбит/сек
Ширина : 720 пикс.
Высота : 400 пикс.
Соотношение сторон : 16:9
Частота кадров : 23,976 кадр/сек
Цветовое пространство : YUV
Подвыборка цветности : 4:2:0
Битовая глубина : 8 бит
Тип развёртки : Прогрессивная
Метод сжатия : С потерями
Бит/(Пиксели*Кадры) : 0.260
Размер потока : 1,19 Гбайт (82%)
Библиотека кодирования : XviD 73

Аудио #1
Идентификатор : 1
Формат : AC-3
Формат/Информация : Audio Coding 3
Расширение режима : CM (complete main)
Идентификатор кодека : 2000
Продолжительность : 1 ч. 35 м.
Вид битрейта : Постоянный
Битрейт : 192 Кбит/сек
Канал(ы) : 2 канала(ов)
Расположение каналов : Front: L R
Частота : 48,0 КГц
Битовая глубина : 16 бит
Метод сжатия : С потерями
Размер потока : 131 Мбайт (9%)
Выравнивание : Разделение по промежуткам
Продолжительность промежутка : 42 мс. (1,00 видеокадр)
Время предзагрузки промежутка : 500 ms

Аудио #2
Идентификатор : 2
Формат : AC-3
Формат/Информация : Audio Coding 3
Расширение режима : CM (complete main)
Идентификатор кодека : 2000
Продолжительность : 1 ч. 35 м.
Вид битрейта : Постоянный
Битрейт : 192 Кбит/сек
Канал(ы) : 2 канала(ов)
Расположение каналов : Front: L R
Частота : 48,0 КГц
Битовая глубина : 16 бит
Метод сжатия : С потерями
Размер потока : 131 Мбайт (9%)
Выравнивание : Разделение по промежуткам
Продолжительность промежутка : 42 мс. (1,00 видеокадр)
Время предзагрузки промежутка : 500 ms
Релиз от: Leon-masl



Скачать 8.голов.в.одной.сумке.8.Heads.in.a.Duffel.Bag.(Том.Шульман).[1997.комедия.криминал.HDTVRip].[DVO]+[AVO].torrent без регистрации
Золото ЗОЛОТАЯ РАЗДАЧА! СКАЧАННОЕ НЕ ЗАСЧИТЫВАЕТСЯ! Золото
Дата: Зарегистрирован   [ Тип: внутренний ] Как тут cкачать?
MAGNET ссылка
MAGNET ссылка


Скачать .torrent

15 KB

Статус: проверено DHT
Скачан: торрент - 112 раз, раздача полностью - 25 раз
Размер: 1,46 GB
Оценка:  5 (Голосов: 2)
Поблагодарили: 3
Поделиться ссылкой на эту раздачу с друзьями:
В контактеFacebookОдноклассникиTwitterLivejournalМой МирLiveinternet
 

 

leon030982

[] 

ay
 
Показать сообщения:    


Вы не можете начинать темы
Вы не можете отвечать на сообщения
Вы не можете редактировать свои сообщения
Вы не можете удалять свои сообщения
Вы не можете голосовать в опросах
Вы не можете прикреплять файлы к сообщениям
Вы можете скачивать файлы