Loading...
Error

Скачать Сражение за тяжёлую воду / Kampen om tungtvannet (сезон 01) (Пер-Олав Соренсен) [2015, драма, исторический, военный, DVD9] [AVO (Есарев)]+[Nor] торрент без регистрации

 
Статистика раздачи
Размер:  14,66 GB   |    Скачан:  108 раз
Сидов:  1  [  0 KB/s  ]  
 
Автор Сообщение

МихаНЕзатор

[] 



Информация о фильме
Название: Сражение за тяжёлую воду
Оригинальное название: Kampen om tungtvannet
Год выхода: 2015
Жанр: драма, исторический, военный
Режиссер: Пер-Олав Соренсен

В ролях: Андреас Дёлер, Роберт Хунгер-Бюлер, Марк Беньямин Пух, Кристоф Бах, Пери Баумейстер, Эспен Ребол Бьерке, Торстейн Бьёрклунд, Оле Кристоффер Эртвог, Ейрик Эвьен

О фильме:Сериал рассказывает о диверсионной операции по уничтожению завода в норвежском посёлке Рьюкан, на котором во время второй мировой войны было налажено производство тяжёлой воды, используемой гитлеровской Германией в собственном ядерном проекте для производства ядерного оружия.

Релиз:

Продолжительность: 6 x ~ 00:45:00
Перевод: Авторский (Есарев)
Файл
Кодек: MPEG-2
Качество: DVD-9
Видео: MPEG2, NTSC 16:9 (720x480@853x480) VBR, 29,970 кадра/сек
Звук: Русский / Норвежский DD 5.1 (448 Kbps)
Title:
Size: 7.62 Gb ( 7 988 602 KBytes ) - DVD-9
Enabled regions: 1, 2, 3, 4, 5, 6, 7, 8

АНОНСЫ ПОПУЛЯРНЫХ РАЗДАЧ


VTS_01 :
Play Length: 00:44:51+00:43:57+00:44:58
Video: NTSC 16:9 (720x480) VBR, Auto Pan&Scan
Audio:
Russian (Dolby AC3, 6 ch)
Norsk (Dolby AC3, 6 ch)

Menu Video:
NTSC 4:3 (704x480) VBR
Menu English Language Unit :
Root Menu
Общее
Полное имя : D:ААА2Сражение за тяжёлую водуДИСК 1VIDEO_TSVTS_01_1.VOB
Формат : MPEG-PS
Размер файла : 1000 Мбайт
Продолжительность : 16 м.
Режим общего битрейта : Переменный
Общий поток : 8370 Кбит/сек

Видео
Идентификатор : 224 (0xE0)
Формат : MPEG Video
Версия формата : Version 2
Профиль формата : Main@Main
Параметр BVOP формата : Да
Параметр матрицы формата : По умолчанию
Параметр GOP формата : M=3, N=13
Продолжительность : 16 м.
Вид битрейта : Переменный
Битрейт : 7308 Кбит/сек
Максимальный битрейт : 8344 Кбит/сек
Ширина : 720 пикселей
Высота : 480 пикселей
Соотношение сторон : 16:9
Частота кадров : 29,970 кадров/сек
Стандарт вещания : NTSC
Цветовое пространство : YUV
Субдискретизация насыщенности : 4:2:0
Битовая глубина : 8 бит
Тип развёртки : Прогрессивная
Метод сжатия : С потерями
Бит/(Пиксели*Кадры) : 0.706
TimeCode_FirstFrame : 00:00:00;00
TimeCode_Source : Group of pictures header
Размер потока : 873 Мбайт (87%)

Аудио #1
Идентификатор : 189 (0xBD)-128 (0x80)
Формат : AC-3
Формат/Информация : Audio Coding 3
Расширение режима : CM (complete main)
Параметр Endianness формата : Big
Режим смешивания : DVD-Video
Продолжительность : 16 м.
Вид битрейта : Постоянный
Битрейт : 448 Кбит/сек
Каналы : 6 каналов
Расположение каналов : Front: L C R, Side: L R, LFE
Частота : 48,0 КГц
Битовая глубина : 16 бит
Метод сжатия : С потерями
Размер потока : 53,5 Мбайт (5%)

Аудио #2
Идентификатор : 189 (0xBD)-129 (0x81)
Формат : AC-3
Формат/Информация : Audio Coding 3
Расширение режима : CM (complete main)
Параметр Endianness формата : Big
Режим смешивания : DVD-Video
Продолжительность : 16 м.
Вид битрейта : Постоянный
Битрейт : 448 Кбит/сек
Каналы : 6 каналов
Расположение каналов : Front: L C R, Side: L R, LFE
Частота : 48,0 КГц
Битовая глубина : 16 бит
Метод сжатия : С потерями
Размер потока : 53,5 Мбайт (5%)

Меню



Скачать Сражение.за.тяжёлую.воду.Kampen.om.tungtvannet.(сезон.01).(Пер-Олав.Соренсен).[2015.драма.исторический.военный.DVD9].[AVO.(Есарев)]+[Nor].torrent без регистрации
Золото ЗОЛОТАЯ РАЗДАЧА! СКАЧАННОЕ НЕ ЗАСЧИТЫВАЕТСЯ! Золото
Дата: Зарегистрирован   [ Тип: внутренний ] Как тут cкачать?
MAGNET ссылка
MAGNET ссылка


Скачать .torrent

76 KB

Статус: проверено DHT
Скачан: торрент - 108 раз, раздача полностью - 16 раз
Размер: 14,66 GB
Оценка:  - (Голосов: 0)
Поблагодарили: 0
Поделиться ссылкой на эту раздачу с друзьями:
В контактеFacebookОдноклассникиTwitterLivejournalМой МирLiveinternet
 

 
Показать сообщения:    


Вы не можете начинать темы
Вы не можете отвечать на сообщения
Вы не можете редактировать свои сообщения
Вы не можете удалять свои сообщения
Вы не можете голосовать в опросах
Вы не можете прикреплять файлы к сообщениям
Вы можете скачивать файлы