Loading...
Error

Скачать Город на границе / Bordertown (Грегори Нава) [2006, триллер, драма, криминал, HDRip-AVC] [MVO]+[Sub]x2 торрент без регистрации

 
Статистика раздачи
Размер:  2,37 GB   |    Скачан:  209 раз
Сидов:  1  [  0 KB/s  ]  
 
Автор Сообщение

Marsianka

[] 

Информация о фильме
Название: Город на границе
Оригинальное название: Bordertown
Год выхода: 2006
Жанр: триллер, драма, криминал
Режиссер: Грегори Нава
В ролях: Дженнифер Лопес, Антонио Бандерас, Мартин Шин, Майя Запата, Иринео Альварез, Рене Ривера, Каролина Вильяреал, Дебрианна Мансини, Рэндолл Батинкофф, Гонсало Мауро Монтьель Агирр, Хуан Диего Ботто, Тереза Руис, Кейт дель Кастильо

О фильме:
История репортерши американской газеты Чикаго Сентинел по имени Лорен, чьим очередным редакционным заданием становится коммандировка в мексиканский приграничный городок Хуарез, где она должна будет провести собственное расследование серии нераскрытых убийств женщин — работниц фабрик, произошедших по всей стране. В ходе расследования Лорен узнает, что счет жертв идет уже на сотни. Чтобы узнать об этой ситуации побольше, она решает войти в доверие в работницам местной фабрики, что в последствии подвергает ее собственную жизнь опасности.



Страна: США, El Norte Productions, Möbius Entertainment, Mosaic Media Group, Nuyorican Productions
Продолжительность: 01:52:02
Перевод: Профессиональный многоголосый
Субтитры: Русские, английские
Дата релиза: 17.09.2014

Файл
Кодек: H.264
Качество: HDRip (AVC)
Видео: MPEG-4 AVC, 2137 Кбит/с, 1024x576
Звук: Русский, английский (AC3, 6 ch, 448 Кбит/с)
Общее
Уникальный идентификатор : 231662304435172878234056062189976581044 (0xAE488972EAC44804A03439BAB50A73B4)
Полное имя : D:6Bordertown.2006.x264.HDRip.(AVC).ExKinoRay.mkv
Формат : Matroska
Размер файла : 2,37 Гбайт
Продолжительность : 1 ч. 52 м.
Общий поток : 3033 Кбит/сек
Название фильма : Bordertown.2006.x264.HDRip.(AVC).ExKinoRay
Дата кодирования : UTC 2014-09-17 15:01:58
Программа кодирования : mkvmerge v4.0.0 ('The Stars were mine') сборка от Jun 6 2010 16:18:42
Библиотека кодирования : libebml v1.0.0 + libmatroska v1.0.0

Видео
Идентификатор : 1
Формат : AVC
Формат/Информация : Advanced Video Codec
Профиль формата : High@L4.1
Параметр CABAC формата : Да
Параметр ReFrames формата : 8 кадров
Идентификатор кодека : V_MPEG4/ISO/AVC
Продолжительность : 1 ч. 52 м.
Битрейт : 2137 Кбит/сек
Ширина : 1024 пикс.
Высота : 576 пикс.
Соотношение сторон : 16:9
Частота кадров : 23,976 кадр/сек
Цветовое пространство : YUV
Подвыборка цветности : 4:2:0
Битовая глубина : 8 бит
Тип развёртки : Прогрессивная
Бит/(Пиксели*Кадры) : 0.151
Размер потока : 1,63 Гбайт (68%)
Заголовок : Rip by Enigma-Vladislav71
Библиотека кодирования : x264 core 129 r2245 bc13772
Настройки программы : cabac=1 / ref=8 / deblock=1:-2:-2 / analyse=0x3:0x133 / me=umh / subme=11 / psy=1 / psy_rd=1.00:0.00 / mixed_ref=1 / me_range=48 / chroma_me=1 / trellis=2 / 8x8dct=1 / cqm=0 / deadzone=21,11 / fast_pskip=0 / chroma_qp_offset=-2 / threads=3 / lookahead_threads=1 / sliced_threads=0 / nr=0 / decimate=0 / interlaced=0 / bluray_compat=0 / constrained_intra=0 / bframes=8 / b_pyramid=2 / b_adapt=2 / b_bias=0 / direct=3 / weightb=1 / open_gop=0 / weightp=2 / keyint=240 / keyint_min=23 / scenecut=40 / intra_refresh=0 / rc=2pass / mbtree=0 / bitrate=2137 / ratetol=1.0 / qcomp=0.60 / qpmin=10 / qpmax=51 / qpstep=4 / cplxblur=20.0 / qblur=0.5 / ip_ratio=1.40 / pb_ratio=1.30 / aq=2:1.00
Язык : English

Аудио #1
Идентификатор : 2
Формат : AC-3
Формат/Информация : Audio Coding 3
Расширение режима : CM (complete main)
Идентификатор кодека : A_AC3
Продолжительность : 1 ч. 52 м.
Вид битрейта : Постоянный
Битрейт : 448 Кбит/сек
Каналы : 6 каналов
Расположение каналов : Front: L C R, Side: L R, LFE
Частота : 48,0 КГц
Битовая глубина : 16 бит
Метод сжатия : С потерями
Размер потока : 359 Мбайт (15%)
Язык : Russian

Аудио #2
Идентификатор : 3
Формат : AC-3
Формат/Информация : Audio Coding 3
Расширение режима : CM (complete main)
Идентификатор кодека : A_AC3
Продолжительность : 1 ч. 52 м.
Вид битрейта : Постоянный
Битрейт : 448 Кбит/сек
Каналы : 6 каналов
Расположение каналов : Front: L C R, Side: L R, LFE
Частота : 48,0 КГц
Битовая глубина : 16 бит
Метод сжатия : С потерями
Размер потока : 359 Мбайт (15%)
Язык : English

Текст #1
Идентификатор : 4
Формат : UTF-8
Идентификатор кодека : S_TEXT/UTF8
Идентификатор кодека/Информация : UTF-8 Plain Text
Язык : Russian

Текст #2
Идентификатор : 5
Формат : UTF-8
Идентификатор кодека : S_TEXT/UTF8
Идентификатор кодека/Информация : UTF-8 Plain Text
Язык : English
Релиз от:

Авторы релиза:



Скачать Город.на.границе.Bordertown.(Грегори.Нава).[2006.триллер.драма.криминал.HDRip-AVC].[MVO]+[Sub]x2.torrent без регистрации
Золото ЗОЛОТАЯ РАЗДАЧА! СКАЧАННОЕ НЕ ЗАСЧИТЫВАЕТСЯ! Золото
Дата: Зарегистрирован   [ Тип: внутренний ] Как тут cкачать?
MAGNET ссылка
MAGNET ссылка


Скачать .torrent

13 KB

Статус: проверено DHT
Скачан: торрент - 209 раз, раздача полностью - 9 раз
Размер: 2,37 GB
Оценка:  - (Голосов: 0)
Поблагодарили: 1
Поделиться ссылкой на эту раздачу с друзьями:
В контактеFacebookОдноклассникиTwitterLivejournalМой МирLiveinternet
 

 
Показать сообщения:    


Вы не можете начинать темы
Вы не можете отвечать на сообщения
Вы не можете редактировать свои сообщения
Вы не можете удалять свои сообщения
Вы не можете голосовать в опросах
Вы не можете прикреплять файлы к сообщениям
Вы можете скачивать файлы