Loading...
Error

Скачать Штамм / The Strain (сезон 01-02) (Гильермо дель Торо и др.) [2014, ужасы, фантастика, драма, WEB-DLRip] [MVO (AlexFilm)] торрент без регистрации

 
Статистика раздачи
Размер:  16,95 GB   |    Скачан:  186 раз
Сидов:  1  [  0 KB/s  ]  
 
Автор Сообщение

МихаНЕзатор

[] 

Информация о фильме
Название: Штамм
Оригинальное название: The Strain
Год выхода: 2014
Жанр: ужасы, фантастика, драма, вампиры, экранизация
Режиссер: Гильермо Дель Торо, Дэвид Семел, Кит Гордон

В ролях: Дэвид Брэдли (I), Кори Столл, Миа Маэстро, Джонатан Хайд, Энн Бетанкорт, Бен Хайленд, Николай Вич, Педро Мигель Арсе, Дрю Нельсон, Джо Веркилло, Джим Уотсон, Алекс Пэкстон, Джонатан Поттс, Рихард Заммель, Шон Эстин, Дэррин Бэйкер, Натали Браун, Дональд Бурда, Кевин Дюран, Хавьер Ботет, Реджина Кинг

О фильме: В аэропорту Нью-Йорка экстренно приземляется самолет, полный мертвецов. Для выяснения обстоятельств их смерти на борт направляются ученые, возглавляемые лучшим городским эпидемиологом Эфраимом Гудвезером. В ходе исследований становится ясно, что пассажиры заражены вирусом вампиризма, который грозит перерасти в масштабную эпидемию, способную погубить все человечество. В обществе нарастает паника, а вызов болезни готовы бросить всего несколько человек: доктор Гудвезер, его команда медиков и группа обладающих специальными знаниями горожан, в состав которой войдет и крысолов по имени Василий Фет.

Релиз от:

Страна: США
Студия: Mirada
Продолжительность: 1 x 01:11:39, 17 x ~ 00:44:00
Перевод: Профессиональный (многоголосый, закадровый) [AlexFilm]

Файл
Формат: AVI
Качество: WEB-DLRip
Видео: XviD, 720x400, ~1800 kbps, 23.976 fps
Аудио: AC3, 48.0 KHz, 6 ch, 192 Kbps
Субтитры: Нет

АНОНСЫ ПОПУЛЯРНЫХ РАЗДАЧ


Торрент обновлён, добавлена 13-я серия 2-го сезона!

Сезон 1:
01. Night Zero / Ночь заражения
02. The Box / Ящик
03. Gone Smooth / Все прошло гладко
04. It's Not for Everyone / Это не для всех
05. Runaways / Беглецы
06. Occultation / Затмение
07. For Services Rendered / За оказанные услуги
08. Creatures of the Night / Ночные создания
09. The Disappeared / Исчезновение
10. Loved Ones / Любимые
11. The Third Rail / Третий Рельс
12. Last Rites / Последние почести
13. The Master

Сезон 2:
01. Бруклин, Нью-Йорк (BK, NY)
02. Любыми средствами / By Any Means
03. Форт неповиновения / Fort Defiance
04. Серебряный Ангел / The Silver Angel
05. Быстро и безболезненно / Quick and Painless
06. Сущность / Identity
07. Рождённый / The Born
08. Вторжение / Intruders
09. Битва за Ред Хук / The Battle for Red Hook
10. Убийца / The Assassin
11. Тупик / Dead End
12. Павший свет / Fallen Light
13. Ночной поезд / Night Train
Complete name : E:KinoShtamm.XviD.WEB-DLRip.AF.GeneralfilmShtamm.S01.2014.XviD.WEB-DLRip.AF.GeneralfilmShtamm.s01e02.2014.XviD.WEB-DLRip.AF.Generalfilm.avi
Format : AVI
Format/Info : Audio Video Interleave
File size : 627 MiB
Duration : 43mn 42s
Overall bit rate : 2 005 Kbps
Writing application : VirtualDubMod 1.5.10.3 | www.virtualdub-fr.org || (build 2550/release)
Writing library : VirtualDubMod build 2550/release

Video
ID : 0
Format : MPEG-4 Visual
Format profile : Advanced Simple@L5
Format settings, BVOP : 2
Format settings, QPel : No
Format settings, GMC : No warppoints
Format settings, Matrix : Default (H.263)
Codec ID : XVID
Codec ID/Hint : XviD
Duration : 43mn 42s
Bit rate : 1 803 Kbps
Width : 720 pixels
Height : 400 pixels
Display aspect ratio : 16:9
Frame rate : 23.976 fps
Color space : YUV
Chroma subsampling : 4:2:0
Bit depth : 8 bits
Scan type : Progressive
Compression mode : Lossy
Bits/(Pixel*Frame) : 0.261
Stream size : 564 MiB (90%)
Writing library : XviD 1.2.1 (UTC 2008-12-04)

Audio
ID : 1
Format : AC-3
Format/Info : Audio Coding 3
Mode extension : CM (complete main)
Format settings, Endianness : Big
Codec ID : 2000
Duration : 43mn 42s
Bit rate mode : Constant
Bit rate : 192 Kbps
Channel count : 6 channels
Channel positions : Front: L C R, Side: L R, LFE
Sampling rate : 48.0 KHz
Bit depth : 16 bits
Compression mode : Lossy
Stream size : 60.0 MiB (10%)
Alignment : Split accross interleaves
Interleave, duration : 42 ms (1.00 video frame)
Interleave, preload duration : 500 ms



Скачать Штамм.The.Strain.(сезон.01-02).(Гильермо.дель.Торо.и.др.).[2014.ужасы.фантастика.драма.WEB-DLRip].[MVO.(AlexFilm)].torrent без регистрации
Золото ЗОЛОТАЯ РАЗДАЧА! СКАЧАННОЕ НЕ ЗАСЧИТЫВАЕТСЯ! Золото
Дата: Зарегистрирован   [ Тип: внутренний ] Как тут cкачать?
MAGNET ссылка
MAGNET ссылка


Скачать .torrent

47 KB

Статус: проверено DHT
Скачан: торрент - 186 раз, раздача полностью - 5 раз
Размер: 16,95 GB
Оценка:  - (Голосов: 0)
Поблагодарили: 0
Поделиться ссылкой на эту раздачу с друзьями:
В контактеFacebookОдноклассникиTwitterLivejournalМой МирLiveinternet
 

 
Показать сообщения:    


Вы не можете начинать темы
Вы не можете отвечать на сообщения
Вы не можете редактировать свои сообщения
Вы не можете удалять свои сообщения
Вы не можете голосовать в опросах
Вы не можете прикреплять файлы к сообщениям
Вы можете скачивать файлы