Loading...
Error

Скачать Слепая зона / Blindspot (01x01 из 10) (Марк Пеллингтон) [2015, драма, WEB-DL] [1080p] [MVO (AlexFilm)]+[Eng] торрент без регистрации

 
Статистика раздачи
Размер:  12,42 GB   |    Скачан:  116 раз
Сидов:  1  [  0 KB/s  ]  
 
Автор Сообщение

МихаНЕзатор

[] 

✦ Слепое пятно / Blindspot ✦


Информация о сериале
❖ Страна: США
❖ Производство: Berlanti Productions, Quinn's House, Universal TV, Warner Bros. Television
❖ Год выпуска: 2016
❖ Жанр: Триллер, драма, криминал, детектив
❖ Режиссер: Марк Пеллингтон, Стив Шилл, Маркос Сига, Карен Гавиола, Роб Харди

❖ В ролях: Джейми Александер, Салливан Степлтон, Одри Эспарза, Роб Браун, Эшли Джонсон, Аквели Роач, Марианн Жан-Баптист, Майкл Гэстон, Франсуа Арно, Джей О. Сандерс, Джо Диникол, Джонни Витуорт, Джордана Спиро

Описание о сериале Молодая девушка просыпается в большой застегнутой сумке прямо центре Нью-Йорка. Она не помнит ничего из своего прошлого и не понимает, как оказалась в центре мегаполиса. Полиция пытается установить личность главной героини, но сделать это непросто, ведь в момент обнаружения на девушке не было даже одежды. Но зато тело полностью покрыто сетью причудливых татуировок, которые наверняка должны что-то означать… Возможный ключ к разгадке дает имя агента ФБР, выбитое на спине таинственной незнакомки. Кроме того, выясняется, что главная героиня отлично владеет техникой восточных единоборств и знает несколько иностранных языков. Позже становится понятно, что каждая, даже самая мелкая отметка на теле девушки, является подсказкой в череде странных преступлений.

Релиз:

❖ Перевод: Профессиональный (многоголосый закадровый) [AlexFilm] + Оригинал
❖ Продолжительность: 7 x ~ 00:45:00

Технические данные файла:
❖ Качество: WEB-DL 1080p
❖ Формат: MKV
❖ Видео кодек: MPEG-4 AVC
❖ Аудио кодек: AC3
❖ Видео: 1916x1076 (16:9), 23.976 fps, MPEG-4 AVC ~ 5041 kbps (0.102 bit/pixel)
❖ Аудио#1: Rus: 48 kHz, AC3, 6 ch, ~384.00 kbps |Многоголосый закадровый, AlexFilm|
❖ Аудио#2: Eng: 48 kHz, AC3, 6 ch, ~384.00 kbps |Оригинал|

АНОНСЫ ПОПУЛЯРНЫХ РАЗДАЧ


Торрент обновлён, добавлена 7-я серия!
General
Unique ID : 184330464455723357060967293358646979561 (0x8AACC190CE3D5770A0804190074F6BE9)
Complete name : Blindspot.s02e01.WEB-DL.1080p.Rus.Eng.AlexFilm.mkv
Format : Matroska
Format version : Version 4 / Version 2
File size : 1.78 GiB
Duration : 43 min 3 s
Overall bit rate : 5 927 kb/s
Encoded date : UTC 2016-09-15 09:09:22
Writing application : mkvmerge v6.1.0 ('Old Devil') built on Mar 4 2013 09:10:42
Writing library : libebml v1.3.0 + libmatroska v1.4.0

Video
ID : 1
Format : AVC
Format/Info : Advanced Video Codec
Format profile : High@L4
Format settings, CABAC : Yes
Format settings, ReFrames : 4 frames
Codec ID : V_MPEG4/ISO/AVC
Duration : 43 min 3 s
Bit rate : 5 041 kb/s
Width : 1 916 pixels
Height : 1 076 pixels
Display aspect ratio : 16:9
Frame rate mode : Constant
Frame rate : 23.976 FPS
Color space : YUV
Chroma subsampling : 4:2:0
Bit depth : 8 bits
Scan type : Progressive
Bits/(Pixel*Frame) : 0.102
Stream size : 1.52 GiB (85%)
Language : English
Default : Yes
Forced : No
Color range : Limited
Color primaries : BT.709
Transfer characteristics : BT.709
Matrix coefficients : BT.709

Audio #1
ID : 2
Format : AC-3
Format/Info : Audio Coding 3
Mode extension : CM (complete main)
Format settings, Endianness : Big
Codec ID : A_AC3
Duration : 43 min 3 s
Bit rate mode : Constant
Bit rate : 384 kb/s
Channel(s) : 6 channels
Channel positions : Front: L C R, Side: L R, LFE
Sampling rate : 48.0 kHz
Frame rate : 31.250 FPS (1536 spf)
Compression mode : Lossy
Stream size : 118 MiB (6%)
Title : DD 5.1 AlexFilm
Language : Russian
Default : Yes
Forced : No

Audio #2
ID : 3
Format : AC-3
Format/Info : Audio Coding 3
Mode extension : CM (complete main)
Format settings, Endianness : Big
Codec ID : A_AC3
Duration : 43 min 3 s
Bit rate mode : Constant
Bit rate : 384 kb/s
Channel(s) : 6 channels
Channel positions : Front: L C R, Side: L R, LFE
Sampling rate : 48.0 kHz
Frame rate : 31.250 FPS (1536 spf)
Compression mode : Lossy
Stream size : 118 MiB (6%)
Title : Eng
Language : English
Default : No
Forced : No



Скачать Слепая.зона.Blindspot.(01x01.из.10).(Марк.Пеллингтон).[2015.драма.WEB-DL].[1080p].[MVO.(AlexFilm)]+[Eng].torrent без регистрации
Золото ЗОЛОТАЯ РАЗДАЧА! СКАЧАННОЕ НЕ ЗАСЧИТЫВАЕТСЯ! Золото
Дата: Зарегистрирован   [ Тип: внутренний ] Как тут cкачать?
MAGNET ссылка
MAGNET ссылка


Скачать .torrent

63 KB

Статус: проверено DHT
Скачан: торрент - 116 раз, раздача полностью - 0 раз
Размер: 12,42 GB
Оценка:  - (Голосов: 0)
Поблагодарили: 0
Поделиться ссылкой на эту раздачу с друзьями:
В контактеFacebookОдноклассникиTwitterLivejournalМой МирLiveinternet
 

 
Показать сообщения:    


Вы не можете начинать темы
Вы не можете отвечать на сообщения
Вы не можете редактировать свои сообщения
Вы не можете удалять свои сообщения
Вы не можете голосовать в опросах
Вы не можете прикреплять файлы к сообщениям
Вы можете скачивать файлы