Loading...
Error

Скачать После работы / After Hours (Мартин Скорсезе) [1985, триллер, драма, комедия, криминал, WEB-DLRip-AVC] [Dub]+[MVO]x2+[Оригинал]+[Sub]x2 торрент без регистрации

 
Статистика раздачи
Размер:  2,18 GB   |    Скачан:  141 раз
Сидов:  1  [  0 KB/s  ]  
 
Автор Сообщение

Marsianka

[] 

После работы / After Hours (1985) WEB-DLRip
Производство: США | The Geffen Company, Double Play
Жанр: триллер, драма, комедия, криминал

Режиссер: Мартин Скорсезе
Актеры: Гриффин Данн, Розанна Аркетт, Верна Блум, Томми Чонг, Линда Фиорентино, Тери Гарр, Джон Хёрд, Чич Марин, Кэтрин О’Хара, Дик Миллер

Описание:
Программист Пол Хэкет совершенно случайно знакомится в кафе с симпатичной девушкой Марси и скоро оказывается у нее в квартире... Вечеринка, мягко выражаясь, не задается с самого начала. Новая подружка неожиданно закатывает истерику и намеревается покончить с собой. Несолоно хлебавши Хэкет решает, пока не поздно, спасаться бегством, но оказывается в эпицентре криминального квартала, из которого никак не может выбраться...



Релиз от: FAGOT100 (NNM-CLUB)
Продолжительность: 01:37:07
Качество видео: WEB-DLRip-AVC
Перевод: Дублированный, профессиональный многоголосый
Язык субтитров: Русский, английский
Вид субтитров: Вшитые отключаемые
Видео: AVC, 1024x576 (16:9), 23.976 fps, 2 492 Kbps (0.176 bit/pixel)
Аудио 1: Dolby Digital Audio Russian / 2.0 / 48 kHz / 192 Кбит/с / 16-bit - Дублированный
Аудио 2: Dolby Digital Audio Russian / 2.0 / 48 kHz / 192 Кбит/с / 16-bit - Многоголосый (ТНТ)
Аудио 3: Dolby Digital Audio Russian / 2.0 / 48 kHz / 192 Кбит/с / 16-bit - Многоголосый (НТВ)
Аудио 4: Dolby Digital Audio English / 2.0 / 48 kHz / 150 Кбит/с / 16-bit - Оригинал

Формат : Matroska
Версия формата : Version 2
Размер файла : 2,18 Гбайт
Продолжительность : 1 ч. 37 м.
Общий поток : 3218 Кбит/сек
Название фильма : After Hours (1985)
Дата кодирования : UTC 2015-08-19 19:07:22
Программа кодирования : mkvmerge v5.3.0 ('I could have danced') built on Feb 9 2012 10:38:07
Библиотека кодирования : libebml v1.2.3 + libmatroska v1.3.0
Attachment : Yes

Видео
Идентификатор : 1
Формат : AVC
Формат/Информация : Advanced Video Codec
Профиль формата : High@L4.1
Параметр CABAC формата : Да
Параметр ReFrames формата : 10 кадров
Идентификатор кодека : V_MPEG4/ISO/AVC
Продолжительность : 1 ч. 37 м.
Номинальный битрейт : 2492 Кбит/сек
Ширина : 1024 пикселя
Высота : 576 пикселей
Соотношение сторон : 16:9
Режим частоты кадров : Постоянный
Частота кадров : 23,976 кадра/сек
Цветовое пространство : YUV
Субдискретизация насыщенности : 4:2:0
Битовая глубина : 8 бит
Тип развёртки : Прогрессивная
Бит/(Пиксели*Кадры) : 0.176
Библиотека кодирования : x264 core 146 r2538 121396c
Настройки программы : cabac=1 / ref=10 / deblock=1:-3:-3 / analyse=0x3:0x133 / me=umh / subme=10 / psy=1 / psy_rd=1.00:0.05 / mixed_ref=1 / me_range=24 / chroma_me=1 / trellis=2 / 8x8dct=1 / cqm=0 / deadzone=21,11 / fast_pskip=0 / chroma_qp_offset=-3 / threads=12 / lookahead_threads=1 / sliced_threads=0 / nr=0 / decimate=0 / interlaced=0 / bluray_compat=0 / constrained_intra=0 / bframes=6 / b_pyramid=2 / b_adapt=2 / b_bias=0 / direct=3 / weightb=1 / open_gop=0 / weightp=2 / keyint=240 / keyint_min=23 / scenecut=40 / intra_refresh=0 / rc=2pass / mbtree=0 / bitrate=2492 / ratetol=1.0 / qcomp=0.60 / qpmin=0 / qpmax=69 / qpstep=4 / cplxblur=20.0 / qblur=0.5 / ip_ratio=1.40 / pb_ratio=1.30 / aq=1:1.00
Язык : English
Default : Да
Forced : Нет

Аудио #1
Идентификатор : 2
Формат : AC-3
Формат/Информация : Audio Coding 3
Расширение режима : CM (complete main)
Параметр Endianness формата : Big
Идентификатор кодека : A_AC3
Продолжительность : 1 ч. 37 м.
Вид битрейта : Постоянный
Битрейт : 192 Кбит/сек
Каналы : 2 канала
Расположение каналов : Front: L R
Частота : 48,0 КГц
Битовая глубина : 16 бит
Метод сжатия : С потерями
Размер потока : 133 Мбайт (6%)
Заголовок : AC3 2.0 ch 192 kbps - дубляж ("Варус видео")
Язык : Russian
Default : Да
Forced : Нет

Аудио #2
Идентификатор : 3
Формат : AC-3
Формат/Информация : Audio Coding 3
Расширение режима : CM (complete main)
Параметр Endianness формата : Big
Идентификатор кодека : A_AC3
Продолжительность : 1 ч. 37 м.
Вид битрейта : Постоянный
Битрейт : 192 Кбит/сек
Каналы : 2 канала
Расположение каналов : Front: L R
Частота : 48,0 КГц
Битовая глубина : 16 бит
Метод сжатия : С потерями
Размер потока : 133 Мбайт (6%)
Заголовок : AC3 2.0 ch 192 kbps - многоголосый (ТНТ)
Язык : Russian
Default : Нет
Forced : Нет

Аудио #3
Идентификатор : 4
Формат : AC-3
Формат/Информация : Audio Coding 3
Расширение режима : CM (complete main)
Параметр Endianness формата : Big
Идентификатор кодека : A_AC3
Продолжительность : 1 ч. 37 м.
Вид битрейта : Постоянный
Битрейт : 192 Кбит/сек
Каналы : 1 канал
Расположение каналов : Front: C
Частота : 48,0 КГц
Битовая глубина : 16 бит
Метод сжатия : С потерями
Размер потока : 133 Мбайт (6%)
Заголовок : AC3 1.0 ch 192 kbps - многоголосый (НТВ)
Язык : Russian
Default : Нет
Forced : Нет

Аудио #4
Идентификатор : 5
Формат : AAC
Формат/Информация : Advanced Audio Codec
Профиль формата : LC
Идентификатор кодека : A_AAC
Продолжительность : 1 ч. 37 м.
Каналы : 2 канала
Расположение каналов : Front: L R
Частота : 48,0 КГц
Метод сжатия : С потерями
Заголовок : AAC (LC) 2.0 ch ~ 150 kbps - original
Язык : English
Default : Нет
Forced : Нет

Текст #1
Идентификатор : 6
Формат : UTF-8
Идентификатор кодека : S_TEXT/UTF8
Идентификатор кодека/Информация : UTF-8 Plain Text
Язык : Russian
Default : Нет
Forced : Нет

Текст #2
Идентификатор : 7
Формат : UTF-8
Идентификатор кодека : S_TEXT/UTF8
Идентификатор кодека/Информация : UTF-8 Plain Text
Язык : English
Default : Нет
Forced : Нет

Меню
00:00:00.000 : en:Credits.
00:01:13.000 : en:Marcy and Miller.
00:06:04.000 : en:Rendezvous plan.
00:08:43.000 : en:Out the window.
00:10:51.000 : en:Sculpting with Kiki.
00:13:59.000 : en:Relaxing massage.
00:17:05.000 : en:Mercurial Marcy.
00:21:29.000 : en:True confessions.
00:25:37.000 : en:Different rules apply.
00:29:11.000 : en:His paperweight need.
00:33:00.000 : en:Too much for a token.
00:34:47.000 : en:Slow night at the Terminal Bar.
00:40:55.000 : en:Burglary suspects.
00:43:13.000 : en:The undisciplined and the dead.
00:49:05.000 : en:Like the Monkees?
00:52:03.000 : en:Jittery Julie.
00:55:23.000 : en:Terminal news.
00:58:33.000 : en:The perfect gift.
01:00:56.000 : en:Stop, thief.
01:03:54.000 : en:Mohawk Night.
01:06:57.000 : en:Gail's numbing numbers.
01:13:00.000 : en:You're dead, pal.
01:15:12.000 : en:Recap rant.
01:19:33.000 : en:Desperation in the diner.
01:22:18.000 : en:Is That All There Is?
01:27:48.000 : en:Getting plastered.
01:31:21.000 : en:Art is forever.
01:34:02.000 : en:End Credits.



Скачать После.работы.After.Hours.(Мартин.Скорсезе).[1985.триллер.драма.комедия.криминал.WEB-DLRip-AVC].[Dub]+[MVO]x2+[Оригинал]+[Sub]x2.torrent без регистрации
Золото ЗОЛОТАЯ РАЗДАЧА! СКАЧАННОЕ НЕ ЗАСЧИТЫВАЕТСЯ! Золото
Дата: Зарегистрирован   [ Тип: внутренний ] Как тут cкачать?
MAGNET ссылка
MAGNET ссылка


Скачать .torrent

12 KB

Статус: проверено DHT
Скачан: торрент - 141 раз, раздача полностью - 2 раз
Размер: 2,18 GB
Оценка:  - (Голосов: 0)
Поблагодарили: 1
Поделиться ссылкой на эту раздачу с друзьями:
В контактеFacebookОдноклассникиTwitterLivejournalМой МирLiveinternet
 

 
Показать сообщения:    


Вы не можете начинать темы
Вы не можете отвечать на сообщения
Вы не можете редактировать свои сообщения
Вы не можете удалять свои сообщения
Вы не можете голосовать в опросах
Вы не можете прикреплять файлы к сообщениям
Вы можете скачивать файлы