Loading...
Error

Скачать Не забудь, что скоро ты умрешь / N'oublie pas que tu vas mourir (Ксавье Бовуа) [1995, героиновая драма, DVDRip-AVC] [AVO (С. Кузнецов)]+[Sub] торрент без регистрации

 
Статистика раздачи
Размер:  1,89 GB   |    Скачан:  95 раз
Сидов:  1  [  0 KB/s  ]  
 
Автор Сообщение

Marsianka

[] 

Информация о фильме
Название: Не забудь, что скоро ты умрешь
Оригинальное название: N'oublie pas que tu vas mourir
Год выхода: 1995
Жанр: героиновая драма
Режиссер: Ксавье Бовуа / Xavier Beauvois
В ролях:
Ксавье Бовуа
Кьяра Мастроянни
Рошди Зем
Бюль Ожье
Жан-Луи Ришар
Эммануель Салинджер
Жан Душе
Паскаль Боницер
Седрик Кан

О фильме:
Бенуа распланировал свою жизнь, но забыл про воинскую службу… Его призывают в армию. Он делает все, чтобы избежать этого. Он идет к психиатру и тот выписывает ему антидепрессант.

Он пытается покончить жизнь самоубийством, поскольку это не помогает. Все становится еще хуже, когда военный доктор говорит ему, что он ВИЧ-положителен. Он едет в Италию, где встречает Клаудию. Кажется жизнь налаживается, но только на время…


Страна: Франция
Студия: AFCL, La Sept Cinéma, Périphéria
Продолжительность: 01:56:32.600
Перевод: Авторский (одноголосый закадровый) - С. Кузнецов

Файл
Кодек: h.264
Качество: DVDRip-AVC
Видео: 712x544 (1.85:1) @ 1012x544 (анаморф), 25.000 fps, AVC, ~1865 Kbps, 0.193 bits/pixel

Русский, 48.0 KHz, AC3, 2 ch, 192 Kbps
Французский, 48.0 KHz, AC3, 2 ch, 256 Kbps
Субтитры: Английские, VobSub
Общее
Уникальный идентификатор : 232339885131164787783548483057816746426 (0xAECB08C1A800F9D3A3E7B82ADF38B9BA)
Полное имя : H:FilmsNe_zabud_chto_skoro_ti_umresh.1995.DVDRip-AVC.mkv
Формат : Matroska
Версия формата : Version 4 / Version 2
Размер файла : 1,89 Гбайт
Продолжительность : 1 ч. 56 м.
Общий поток : 2316 Кбит/сек
Дата кодирования : UTC 2014-11-15 16:40:37
Программа кодирования : mkvmerge v7.3.0 ('Nouages') 64bit built on Oct 22 2014 18:53:34
Библиотека кодирования : libebml v1.3.0 + libmatroska v1.4.1
DURATION : 01:55:58.360000000
NUMBER_OF_FRAMES : 901
NUMBER_OF_BYTES : 1235157
_STATISTICS_WRITING_APP : mkvmerge v7.3.0 ('Nouages') 64bit built on Oct 22 2014 18:53:34
_STATISTICS_WRITING_DATE_UTC : 2014-11-15 16:40:37
_STATISTICS_TAGS : BPS DURATION NUMBER_OF_FRAMES NUMBER_OF_BYTES

Видео
Идентификатор : 1
Формат : AVC
Формат/Информация : Advanced Video Codec
Профиль формата : High@L4.1
Параметр CABAC формата : Да
Параметр ReFrames формата : 16 кадров
Идентификатор кодека : V_MPEG4/ISO/AVC
Продолжительность : 1 ч. 56 м.
Битрейт : 1865 Кбит/сек
Ширина : 712 пикселей
Высота : 544 пикселя
Соотношение сторон : 1,85:1
Соотношение сторон в оригинале : 1,85:1
Режим частоты кадров : Постоянный
Частота кадров : 25,000 кадров/сек
Цветовое пространство : YUV
Субдискретизация насыщенности : 4:2:0
Битовая глубина : 8 бит
Тип развёртки : Прогрессивная
Бит/(Пиксели*Кадры) : 0.193
Размер потока : 1,48 Гбайт (79%)
Библиотека кодирования : x264 core 142 r2431 ac76440
Настройки программы : cabac=1 / ref=16 / deblock=1:0:0 / analyse=0x3:0x133 / me=umh / subme=10 / psy=1 / psy_rd=1.10:0.10 / mixed_ref=1 / me_range=32 / chroma_me=1 / trellis=2 / 8x8dct=1 / cqm=0 / deadzone=21,11 / fast_pskip=0 / chroma_qp_offset=-3 / threads=8 / lookahead_threads=1 / sliced_threads=0 / nr=0 / decimate=0 / interlaced=0 / bluray_compat=0 / constrained_intra=0 / bframes=9 / b_pyramid=2 / b_adapt=2 / b_bias=0 / direct=3 / weightb=1 / open_gop=0 / weightp=2 / keyint=250 / keyint_min=25 / scenecut=60 / intra_refresh=0 / rc_lookahead=60 / rc=2pass / mbtree=0 / bitrate=1865 / ratetol=1.0 / qcomp=0.60 / qpmin=0 / qpmax=69 / qpstep=4 / cplxblur=20.0 / qblur=0.5 / vbv_maxrate=50000 / vbv_bufsize=62500 / nal_hrd=none / filler=0 / ip_ratio=1.40 / pb_ratio=1.30 / aq=1:1.00
Default : Нет
Forced : Нет
Коэффициенты матрицы : BT.601
colour_range : Limited
DURATION : 01:56:32.600000000
NUMBER_OF_FRAMES : 174815
NUMBER_OF_BYTES : 1630147120
_STATISTICS_WRITING_APP : mkvmerge v7.3.0 ('Nouages') 64bit built on Oct 22 2014 18:53:34
_STATISTICS_WRITING_DATE_UTC : 2014-11-15 16:40:37
_STATISTICS_TAGS : BPS DURATION NUMBER_OF_FRAMES NUMBER_OF_BYTES

Аудио #1
Идентификатор : 2
Формат : AC-3
Формат/Информация : Audio Coding 3
Расширение режима : CM (complete main)
Параметр Endianness формата : Big
Идентификатор кодека : A_AC3
Продолжительность : 1 ч. 56 м.
Вид битрейта : Постоянный
Битрейт : 192 Кбит/сек
Каналы : 2 канала
Расположение каналов : Front: L R
Частота : 48,0 КГц
Битовая глубина : 16 бит
Метод сжатия : С потерями
Размер потока : 160 Мбайт (8%)
Язык : Russian
Default : Да
Forced : Нет

Аудио #2
Идентификатор : 3
Формат : AC-3
Формат/Информация : Audio Coding 3
Расширение режима : CM (complete main)
Параметр Endianness формата : Big
Идентификатор кодека : A_AC3
Продолжительность : 1 ч. 56 м.
Вид битрейта : Постоянный
Битрейт : 256 Кбит/сек
Каналы : 2 канала
Расположение каналов : Front: L R
Частота : 48,0 КГц
Битовая глубина : 16 бит
Метод сжатия : С потерями
Размер потока : 213 Мбайт (11%)
Язык : French
Default : Нет
Forced : Нет

Текст
Идентификатор : 4
Формат : VobSub
Режим смешивания : zlib
Идентификатор кодека : S_VOBSUB
Идентификатор кодека/Информация : The same subtitle format used on DVDs
Язык : English
Default : Нет
Forced : Нет

Меню
00:00:00.000 : en:Chapter 01
00:01:05.280 : en:Chapter 02
00:08:11.040 : en:Chapter 03
00:16:53.160 : en:Chapter 04
00:30:30.040 : en:Chapter 05
00:37:29.920 : en:Chapter 06
00:50:52.200 : en:Chapter 07
00:56:35.400 : en:Chapter 08
01:07:32.640 : en:Chapter 09
01:19:53.160 : en:Chapter 10
01:31:32.840 : en:Chapter 11
01:43:00.920 : en:Chapter 12
01:53:50.960 : en:Chapter 13
Релиз от: Temperest



Скачать Не.забудь.что.скоро.ты.умрешь.N'oublie.pas.que.tu.vas.mourir.(Ксавье.Бовуа).[1995.героиновая.драма.DVDRip-AVC].[AVO.(С.Кузнецов)]+[Sub].torrent без регистрации
Золото ЗОЛОТАЯ РАЗДАЧА! СКАЧАННОЕ НЕ ЗАСЧИТЫВАЕТСЯ! Золото
Дата: Зарегистрирован   [ Тип: внутренний ] Как тут cкачать?
MAGNET ссылка
MAGNET ссылка


Скачать .torrent

20 KB

Статус: проверено DHT
Скачан: торрент - 95 раз, раздача полностью - 0 раз
Размер: 1,89 GB
Оценка:  - (Голосов: 0)
Поблагодарили: 1
Поделиться ссылкой на эту раздачу с друзьями:
В контактеFacebookОдноклассникиTwitterLivejournalМой МирLiveinternet
 

 
Показать сообщения:    


Вы не можете начинать темы
Вы не можете отвечать на сообщения
Вы не можете редактировать свои сообщения
Вы не можете удалять свои сообщения
Вы не можете голосовать в опросах
Вы не можете прикреплять файлы к сообщениям
Вы можете скачивать файлы