Loading...
Error

Скачать Прослушка / The Wire (Сезон 03) (Эд Бьянки / Ed Bianchi) [2004, криминальная драма, BDRip] [400p] [AVO] (Ю. Сербин) + [Orig] торрент без регистрации

 
Статистика раздачи
Размер:  13,73 GB   |    Скачан:  235 раз
Сидов:  1  [  0 KB/s  ]  
 
Автор Сообщение

leon030982

[] 

Прослушка / The Wire

Год выпуска: 2004
Страна: США
Жанр: криминальная драма
Продолжительность: 01:00:00
Перевод: Авторский (одноголосыйб закадровый) Ю. Сербин
Субтитры: отсутствуют

Режиссёр: Эд Бьянки / Ed Bianchi

В ролях: Доминик Уэст, Идрис Эльба, Джон Доумен, Уенделл Пирс, Лэнс Реддик, Дирдри Лавджой, Соня Сон, Сет Гиллиам, Доменик Ломбардоцци, Кларк Питерс, Андре Рой и др.

Описание: Подразделение полицейских в Балтиморе пытается с помощью специальных средств и мероприятий по прослушиванию и скрытой видеосъемке довести до суда расследование преступлений организованных преступных групп, которые занимаются незаконным распространением наркотиков.

| Sample | |


Качество: BDRip
Формат: AVI
Видео: Xvid, 720x400 (16:9), 23.976 fps, ~ 2000 kbps
Аудио 1: AC3, 48 kHz, 6 ch, 384 kbps (русский)
Аудио 2: AC3, 48 kHz, 6 ch, 384 kbps (английский)

Работа с видео: whip93
Релиз:

Обновлено 21.10.15.Добавлены 8-12-я серии!
General
Complete name : D:\Фильмы\The Wire Season 3 CasStudio.TV\The.Wire.S03E01.BDRip.DUAL.CasStudio.TV.avi
Format : AVI
Format/Info : Audio Video Interleave
File size : 1.15 GiB
Duration : 58mn 35s
Overall bit rate : 2 799 Kbps
Movie name : The Wire
Director : whip93
Subject : S03E01
Writing application : VirtualDubMod 1.5.10.3 | www.virtualdub-fr.org || (build 2550/release)
Writing library : VirtualDubMod build 2550/release
Copyright : CasStudio.TV
Video
ID : 0
Format : MPEG-4 Visual
Format profile : Advanced Simple@L5
Format settings, BVOP : 1
Format settings, QPel : No
Format settings, GMC : No warppoints
Format settings, Matrix : Default (MPEG)
Codec ID : XVID
Codec ID/Hint : XviD
Duration : 58mn 35s
Bit rate : 2 017 Kbps
Width : 720 pixels
Height : 400 pixels
Display aspect ratio : 16:9
Frame rate : 23.976 fps
Color space : YUV
Chroma subsampling : 4:2:0
Bit depth : 8 bits
Scan type : Progressive
Compression mode : Lossy
Bits/(Pixel*Frame) : 0.292
Stream size : 845 MiB (72%)
Writing library : XviD 73
Audio #1
ID : 1
Format : AC-3
Format/Info : Audio Coding 3
Mode extension : CM (complete main)
Format settings, Endianness : Big
Codec ID : 2000
Duration : 58mn 35s
Bit rate mode : Constant
Bit rate : 384 Kbps
Channel(s) : 6 channels
Channel positions : Front: L C R, Side: L R, LFE
Sampling rate : 48.0 KHz
Bit depth : 16 bits
Compression mode : Lossy
Stream size : 161 MiB (14%)
Alignment : Split accross interleaves
Interleave, duration : 42 ms (1.00 video frame)
Interleave, preload duration : 500 ms
Audio #2
ID : 2
Format : AC-3
Format/Info : Audio Coding 3
Mode extension : CM (complete main)
Format settings, Endianness : Big
Codec ID : 2000
Duration : 58mn 35s
Bit rate mode : Constant
Bit rate : 384 Kbps
Channel(s) : 6 channels
Channel positions : Front: L C R, Side: L R, LFE
Sampling rate : 48.0 KHz
Bit depth : 16 bits
Compression mode : Lossy
Stream size : 161 MiB (14%)
Alignment : Split accross interleaves
Interleave, duration : 42 ms (1.00 video frame)
Interleave, preload duration : 500 ms



Скачать Прослушка.The.Wire.(Сезон.03).(Эд.Бьянки.Ed.Bianchi).[2004.криминальная.драма.BDRip].[400p].[AVO].(Ю.Сербин).+.[Orig].torrent без регистрации
Золото ЗОЛОТАЯ РАЗДАЧА! СКАЧАННОЕ НЕ ЗАСЧИТЫВАЕТСЯ! Золото
Дата: Зарегистрирован   [ Тип: внутренний ] Как тут cкачать?
MAGNET ссылка
MAGNET ссылка


Скачать .torrent

36 KB

Статус: проверено DHT
Скачан: торрент - 235 раз, раздача полностью - 77 раз
Размер: 13,73 GB
Оценка:  5 (Голосов: 1)
Поблагодарили: 1
Поделиться ссылкой на эту раздачу с друзьями:
В контактеFacebookОдноклассникиTwitterLivejournalМой МирLiveinternet
 

 

leon030982

[] 

Код:

Добавлены 8-12-я серии.Полный 3-ий сезон
 
Показать сообщения:    


Вы не можете начинать темы
Вы не можете отвечать на сообщения
Вы не можете редактировать свои сообщения
Вы не можете удалять свои сообщения
Вы не можете голосовать в опросах
Вы не можете прикреплять файлы к сообщениям
Вы можете скачивать файлы