Loading...
Error

Скачать Семья Сопрано / The Sopranos (Полный 2-ой сезон) (Тимоти Ван Паттен, Джон Паттерсон, Аллен Култер) [2000, Криминальная драма, BDRemux 1080p] 3x[AVO] + 3x[MVO] + [Orig]+ [Subs] (2xRus, Eng) торрент без регистрации

 
Статистика раздачи
Размер:  135,47 GB   |    Скачан:  181 раз
Сидов:  1  [  0 KB/s  ]  
 
Автор Сообщение

leon030982

[] 

Семья Сопрано / The Sopranos
Второй сезон


Год выпуска: 2000
Страна: США
Жанр: Криминальная драма
Продолжительность: ~ 00:50:00
Перевод #1: Авторский (одноголосый закадровый) - Д. Пучков
Перевод #2: Профессиональный (многоголосый закадровый) - Amedia
Перевод #3: Авторский (одноголосый закадровый) - Ю. Сербин
Перевод #4: Профессиональный (многоголосый закадровый) - Fox Crime
Перевод #5: Профессиональный (многоголосый закадровый) - НТВ
Перевод #6: Авторский (одноголосый закадровый) - А. Карповский

Режиссёр: Тимоти Ван Паттен, Джон Паттерсон, Аллен Култер

В ролях: Джеймс Гандольфини, Эди Фалько, Джэми-Линн Сиглер, Майкл Империоли, Лоррейн Бракко, Тони Сирико, Роберт Айлер, Стив Ван Зандт, Доминик Кьянезе, Аида Туртурро и др.
Описание: Повседневная жизнь современного Крестного отца: его мысли — стремительны, действия — решительны, а юмор — черен. Мафиозный босс Северного Джерси Тони Сопрано успешно справляется с проблемами «Семьи».

Сэмпл
Качество: BDRemux 1080p
Формат: MKV
Видео кодек: AVC
Аудио кодек: AC3, DTS
Видео: MPEG4, AVC, 1920x1080p, 16:9, 23.976 fps, ~25.80 Mbps
Аудио 1: Russian - Д. Пучков - Goblin, AC3\5.1\48.0KHz\384 Kbps
Аудио 2: Russian - Amedia, AC3\5.1\48.0KHz\384 Kbps
Аудио 3: Russian - Ю. Сербин, (1-10 серии) - AC3\5.1\48.0KHz\384 Kbps (11-13 серии) - AC3\5.1\48.0KHz\640 Kbps
Аудио 4: Russian - Fox Crime, AC3\2.0\48.0 KHz\192Kbps
Аудио 5: Russian - НТВ, AC3\5.1\48.0 KHz\384Kbps
Аудио 6: Russian - А. Карповский, AC3\5.1\48.0KHz\384 Kbps
Аудио 7: English - Original, (1-4;9-13 серии) - DTS-HD MA\5.1\48.0 KHz\~2372 kbps\16 bits (DTS Core:5.1\48kHz\1509kbps\16-bit)
(5-8 серии) - DTS-HD MA\5.1\48.0 KHz\~4097 kbps\24 bits (DTS Core:5.1\48kHz\1509kbps\24-bit)
Субтитры: 1: Rus - Д. Пучков (Goblin), 2: Rus - Amedia, 3: Eng
01: Guy Walks Into a Psychiatrist's Office
02: Do Not Resuscitate
03: Toodle-Fucking-Oo
04: Commendatori
05: Big Girls Don't Cry
06: The Happy Wanderer
07: D-Girl
08: Full Leather Jacket
09: From Where to Eternity
10: Bust-Out
11: House Arrest
12: The Knight in White Satin Armor
13: Funhouse
Complete name : E:\Rutracker\The Sopranos\The.Sopranos.S02.BDRemux.1080p.AVC.6xRus.Eng.Sub\The.Sopranos.S02E01-Guy.Walks.into.a.Psychiatrist's.Office.BDRemux.6xRus.Eng.Sub.mkv
Format : Matroska
Format version : Version 4 / Version 2
File size : 10.5 GiB
Duration : 49mn 27s
Overall bit rate mode : Variable
Overall bit rate : 30.3 Mbps
Movie name : The.Sopranos.S02E01.Guy.Walks.into.a.Psychiatrist's.Office.BluRay.Remux.1080p.AVC.DTS HD.MA.5.1-decibeL
Encoded date : UTC 2015-08-04 15:30:24
Writing application : mkvmerge v8.2.0 ('World of Adventure') 64bit
Writing library : libebml v1.3.1 + libmatroska v1.4.2
DURATION : 00:45:56.754000000
NUMBER_OF_FRAMES : 545
NUMBER_OF_BYTES : 20772
_STATISTICS_WRITING_APP : mkvmerge v8.2.0 ('World of Adventure') 64bit
_STATISTICS_WRITING_DATE_UT : 2015-08-04 15:30:24
_STATISTICS_TAGS : BPS DURATION NUMBER_OF_FRAMES NUMBER_OF_BYTES
Video
ID : 1
Format : AVC
Format/Info : Advanced Video Codec
Format profile : High@L4.1
Format settings, CABAC : Yes
Format settings, ReFrames : 2 frames
Codec ID : V_MPEG4/ISO/AVC
Duration : 49mn 27s
Bit rate mode : Variable
Width : 1 920 pixels
Height : 1 080 pixels
Display aspect ratio : 16:9
Frame rate mode : Constant
Frame rate : 23.976 fps
Color space : YUV
Chroma subsampling : 4:2:0
Bit depth : 8 bits
Scan type : Progressive
Title : The Sopranos Season - 2 BD Remux
Language : English
Default : Yes
Forced : No
DURATION : 00:49:27.340000000
NUMBER_OF_FRAMES : 71145
NUMBER_OF_BYTES : 9574185046
_STATISTICS_WRITING_APP : mkvmerge v8.2.0 ('World of Adventure') 64bit
_STATISTICS_WRITING_DATE_UT : 2015-08-04 15:30:24
_STATISTICS_TAGS : BPS DURATION NUMBER_OF_FRAMES NUMBER_OF_BYTES
Audio #1
ID : 2
Format : AC-3
Format/Info : Audio Coding 3
Mode extension : CM (complete main)
Format settings, Endianness : Big
Codec ID : A_AC3
Duration : 49mn 27s
Bit rate mode : Constant
Bit rate : 384 Kbps
Channel(s) : 6 channels
Channel positions : Front: L C R, Side: L R, LFE
Sampling rate : 48.0 KHz
Compression mode : Lossy
Stream size : 136 MiB (1%)
Title : Д. Пучков - Goblin AC3 5.1
Language : Russian
Default : Yes
Forced : No
DURATION : 00:49:27.382000000
NUMBER_OF_FRAMES : 278192
NUMBER_OF_BYTES : 879840900
_STATISTICS_WRITING_APP : mkvmerge v8.2.0 ('World of Adventure') 64bit
_STATISTICS_WRITING_DATE_UT : 2015-08-04 15:30:24
_STATISTICS_TAGS : BPS DURATION NUMBER_OF_FRAMES NUMBER_OF_BYTES
Audio #2
ID : 3
Format : AC-3
Format/Info : Audio Coding 3
Mode extension : CM (complete main)
Format settings, Endianness : Big
Codec ID : A_AC3
Duration : 49mn 27s
Bit rate mode : Constant
Bit rate : 384 Kbps
Channel(s) : 6 channels
Channel positions : Front: L C R, Side: L R, LFE
Sampling rate : 48.0 KHz
Compression mode : Lossy
Stream size : 136 MiB (1%)
Title : Amedia AC3 5.1
Language : Russian
Default : No
Forced : No
Audio #3
ID : 4
Format : AC-3
Format/Info : Audio Coding 3
Mode extension : CM (complete main)
Format settings, Endianness : Big
Codec ID : A_AC3
Duration : 49mn 27s
Bit rate mode : Constant
Bit rate : 384 Kbps
Channel(s) : 6 channels
Channel positions : Front: L C R, Side: L R, LFE
Sampling rate : 48.0 KHz
Compression mode : Lossy
Stream size : 136 MiB (1%)
Title : Ю. Сербин AC3 5.1
Language : Russian
Default : No
Forced : No
Audio #4
ID : 5
Format : AC-3
Format/Info : Audio Coding 3
Mode extension : CM (complete main)
Format settings, Endianness : Big
Codec ID : A_AC3
Duration : 49mn 27s
Bit rate mode : Constant
Bit rate : 192 Kbps
Channel(s) : 2 channels
Channel positions : Front: L R
Sampling rate : 48.0 KHz
Compression mode : Lossy
Stream size : 67.9 MiB (1%)
Title : Fox Crime AC3 2.0
Language : Russian
Default : No
Forced : No
Audio #5
ID : 6
Format : AC-3
Format/Info : Audio Coding 3
Mode extension : CM (complete main)
Format settings, Endianness : Big
Codec ID : A_AC3
Duration : 49mn 27s
Bit rate mode : Constant
Bit rate : 384 Kbps
Channel(s) : 6 channels
Channel positions : Front: L C R, Side: L R, LFE
Sampling rate : 48.0 KHz
Compression mode : Lossy
Stream size : 136 MiB (1%)
Title : НТВ AC3 5.1
Language : Russian
Default : No
Forced : No
Audio #6
ID : 7
Format : AC-3
Format/Info : Audio Coding 3
Mode extension : CM (complete main)
Format settings, Endianness : Big
Codec ID : A_AC3
Duration : 49mn 27s
Bit rate mode : Constant
Bit rate : 384 Kbps
Channel(s) : 6 channels
Channel positions : Front: L C R, Side: L R, LFE
Sampling rate : 48.0 KHz
Compression mode : Lossy
Stream size : 136 MiB (1%)
Title : А. Карповский AC3 5.1
Language : Russian
Default : No
Forced : No
Audio #7
ID : 8
Format : DTS
Format/Info : Digital Theater Systems
Format profile : MA / Core
Mode : 16
Format settings, Endianness : Big
Codec ID : A_DTS
Duration : 49mn 27s
Bit rate mode : Variable
Bit rate : Unknown / 1 509 Kbps
Channel(s) : 6 channels
Channel positions : Front: L C R, Side: L R, LFE
Sampling rate : 48.0 KHz
Bit depth : 16 bits
Compression mode : Lossless / Lossy
Title : English DTS-HD MA
Language : English
Default : No
Forced : No
Text #1
ID : 9
Format : UTF-8
Codec ID : S_TEXT/UTF8
Codec ID/Info : UTF-8 Plain Text
Title : Д. Пучов - Goblin
Language : Russian
Default : No
Forced : No
Text #2
ID : 10
Format : UTF-8
Codec ID : S_TEXT/UTF8
Codec ID/Info : UTF-8 Plain Text
Title : Amedia
Language : Russian
Default : No
Forced : No
Text #3
ID : 11
Format : UTF-8
Codec ID : S_TEXT/UTF8
Codec ID/Info : UTF-8 Plain Text
Language : English
Default : No
Forced : No



Скачать Семья.Сопрано.The.Sopranos.(Полный.2-ой.сезон).(Тимоти.Ван.Паттен.Джон.Паттерсон.Аллен.Култер).[2000.Криминальная.драма.BDRemux.1080p].3x[AVO].+.3x[MVO].+.[Orig]+.[Subs].(2xRus.Eng).torrent без регистрации
Золото ЗОЛОТАЯ РАЗДАЧА! СКАЧАННОЕ НЕ ЗАСЧИТЫВАЕТСЯ! Золото
Дата: Зарегистрирован   [ Тип: внутренний ] Как тут cкачать?
MAGNET ссылка
MAGNET ссылка


Скачать .torrent

680 KB

Статус: проверено DHT
Скачан: торрент - 181 раз, раздача полностью - 0 раз
Размер: 135,47 GB
Оценка:  5 (Голосов: 2)
Поблагодарили: 1
Поделиться ссылкой на эту раздачу с друзьями:
В контактеFacebookОдноклассникиTwitterLivejournalМой МирLiveinternet
 

 
Показать сообщения:    


Вы не можете начинать темы
Вы не можете отвечать на сообщения
Вы не можете редактировать свои сообщения
Вы не можете удалять свои сообщения
Вы не можете голосовать в опросах
Вы не можете прикреплять файлы к сообщениям
Вы можете скачивать файлы