Loading...
Error

Скачать Бойтесь ходячих мертвецов / Fear the Walking Dead (Сезон 01) (Адам Дэвидсон, Кари Скогланд, Стефан Шварц) [2015, драма, триллер, ужасы, WEB-DL] [1080p] [MVO] (HamsterStudio) + [Orig] + [Rus Sub] торрент без регистрации

 
Статистика раздачи
Размер:  12,36 GB   |    Скачан:  149 раз
Сидов:  1  [  0 KB/s  ]  
 
Автор Сообщение

leon030982

[] 

Бойтесь ходячих мертвецов / Fear the Walking Dead

Год выпуска: 2015
Страна: США
Жанр: драма, триллер, ужасы
Продолжительность: 01:03:00
Перевод: Любительский (многоголосый, закадровый) HamsterStudio
Субтитры: Русские

Режиссёр: Адам Дэвидсон, Кари Скогланд, Стефан Шварц

В ролях: Клифф Кёртис, Ким Диккенс, Алисия Дебнем-Кери, Фрэнк Диллэйн, Рубен Блэйдс, Мерседес Масон, Колман Доминго, Лоренцо Джеймс Хенри, Элизабет Родригес, Тони Френч

Описание: Действия сериала происходят параллельно с событиями зомби-апокалипсиса, показанными в сериале «Ходячие мертвецы», но в совершенно другом месте — Лос-Анджелесе. Акцент будет сделан на семейные отношения, в частности, проблемы отцов и детей. История вращается вокруг Шона — разведённого школьного учителя и Нэнси руководительницы женского совета. А так же детей Нэнси: Ника, который борется с наркотической зависимостью и амбициозной дочери Эшли.

Доп. информация:
Релиз: ХамстерСтудио
Озвучка: Алексей Соловьёв, Анастасия Флигина и Андрей Жариков
Автор перевода: Антон Кедров
Монтаж и сведение звука: Роман Мырон



Сэмпл: http://multi-up.com
Качество: WEB-DL 1080p
Контейнер: MKV
Видео: MPEG-4 AVC, ~ 5068 Кбит/с, 1920x1080, 23.976fps
Аудио 1: Dolby AC3 48000Hz 6ch 448kbps [русский]
Аудио 2: Dolby AC3 48000Hz 6ch 448kbps [английский]

09.10.15 Добавлена 3-6-я серия!
General
Unique ID : 243102966170823827013320853740869144583 (0xB6E3ED9F49700495ACB78898D7505007)
Complete name : D:\TORRENTS\Fear.the.Walking.Dead.S01E01.1080p.WEB-DL.HamsterStudio.mkv
Format : Matroska
Format version : Version 4 / Version 2
File size : 2.74 GiB
Duration : 1h 4mn
Overall bit rate : 6 085 Kbps
Encoded date : UTC 2015-08-24 21:17:41
Writing application : mkvmerge v8.3.0 ('Over the Horizon') 32bit
Writing library : libebml v1.3.1 + libmatroska v1.4.2
DURATION : 01:03:26.105000000
NUMBER_OF_FRAMES : 660
NUMBER_OF_BYTES : 33189
_STATISTICS_WRITING_APP : mkvmerge v8.3.0 ('Over the Horizon') 32bit
_STATISTICS_WRITING_DATE_UTC : 2015-08-24 21:17:41
_STATISTICS_TAGS : BPS DURATION NUMBER_OF_FRAMES NUMBER_OF_BYTES

Video
ID : 1
Format : AVC
Format/Info : Advanced Video Codec
Format profile : High@L4
Format settings, CABAC : Yes
Format settings, ReFrames : 4 frames
Codec ID : V_MPEG4/ISO/AVC
Duration : 1h 4mn
Bit rate : 5 068 Kbps
Width : 1 920 pixels
Height : 1 080 pixels
Display aspect ratio : 16:9
Frame rate mode : Constant
Frame rate : 23.976 fps
Color space : YUV
Chroma subsampling : 4:2:0
Bit depth : 8 bits
Scan type : Progressive
Bits/(Pixel*Frame) : 0.102
Stream size : 2.28 GiB (83%)
Default : Yes
Forced : No
Color range : Limited
Color primaries : BT.709
Transfer characteristics : BT.709
Matrix coefficients : BT.709

Audio #1
ID : 2
Format : AC-3
Format/Info : Audio Coding 3
Mode extension : CM (complete main)
Format settings, Endianness : Big
Codec ID : A_AC3
Duration : 1h 4mn
Bit rate mode : Constant
Bit rate : 448 Kbps
Channel(s) : 6 channels
Channel positions : Front: L C R, Side: L R, LFE
Sampling rate : 48.0 KHz
Compression mode : Lossy
Delay relative to video : 15ms
Stream size : 207 MiB (7%)
Title : HamsterStudio
Language : Russian
Default : Yes
Forced : Yes

Audio #2
ID : 3
Format : AC-3
Format/Info : Audio Coding 3
Mode extension : CM (complete main)
Format settings, Endianness : Big
Codec ID : A_AC3
Duration : 1h 4mn
Bit rate mode : Constant
Bit rate : 448 Kbps
Channel(s) : 6 channels
Channel positions : Front: L C R, Side: L R, LFE
Sampling rate : 48.0 KHz
Compression mode : Lossy
Delay relative to video : 15ms
Stream size : 207 MiB (7%)
Title : Original
Language : English
Default : No
Forced : No

Text
ID : 4
Format : UTF-8
Codec ID : S_TEXT/UTF8
Codec ID/Info : UTF-8 Plain Text
Title : Antonio
Language : Russian
Default : No
Forced : No



Скачать Бойтесь.ходячих.мертвецов.Fear.the.Walking.Dead.(Сезон.01).(Адам.Дэвидсон.Кари.Скогланд.Стефан.Шварц).[2015.драма.триллер.ужасы.WEB-DL].[1080p].[MVO].(HamsterStudio).+.[Orig].+.[Rus.Sub].torrent без регистрации
Золото ЗОЛОТАЯ РАЗДАЧА! СКАЧАННОЕ НЕ ЗАСЧИТЫВАЕТСЯ! Золото
Дата: Зарегистрирован   [ Тип: внутренний ] Как тут cкачать?
MAGNET ссылка
MAGNET ссылка


Скачать .torrent

63 KB

Статус: проверено DHT
Скачан: торрент - 149 раз, раздача полностью - 2 раз
Размер: 12,36 GB
Оценка:  - (Голосов: 0)
Поблагодарили: 0
Поделиться ссылкой на эту раздачу с друзьями:
В контактеFacebookОдноклассникиTwitterLivejournalМой МирLiveinternet
 

 
Показать сообщения:    


Вы не можете начинать темы
Вы не можете отвечать на сообщения
Вы не можете редактировать свои сообщения
Вы не можете удалять свои сообщения
Вы не можете голосовать в опросах
Вы не можете прикреплять файлы к сообщениям
Вы можете скачивать файлы