Loading...
Error

Скачать Общественная мораль / Public Morals (Сезон 01, серии 01-06 из 10) (Эдвард Бёрнс) [2015, драма, WEB-DL] [1080p] [MVO] (NewStudio) торрент без регистрации

 
Статистика раздачи
Размер:  10,21 GB   |    Скачан:  139 раз
Сидов:  1  [  0 KB/s  ]  
 
Автор Сообщение

leon030982

[] 

Общественная Мораль | Public Morals



Год выпуска: 2015
Страна: США | TNT DRAMA
Жанр: криминал, драма
Продолжительность: ~00:42:00
Перевод: Профессиональный (многоголосый закадровый) | NewStudio
Режиссёры: Эдвард Бёрнс и др.

В ролях: Марк Катрина Боуден, Эдвард Бёрнс, Патрик Мёрни, Кит Ноббс, Майкл Рапапорт, Рубен Сантьяго-Хадсон, Линдон Смит, Уасс М. Стивенс, Остин Стоуэлл и др.

Описание: Сериал рассказывает о полицейских, работающих в департаменте полиции Нью-Йорка в 1960-х, которые перешли грань между законом и преступностью.

Качество: WEB-DL 1080p
Контейнер: MKV
Видео: H.264, 1920x1080 (16:9), 23.976 fps, 4967 kbps, 0.100 bit/pixel
Аудио 1: AC3, 48 kHz, 6 ch, 384 kbps | Russian
Аудио 2: AC3, 48 kHz, 6 ch, 384 kbps | English
Субтитры: отсутствуют
Релиз:

Перевод: Григорий Сенин.
Озвучание: NewStudioGroup.
Постер: Vortex.
| Сэмпл | TVRage
01. A Fine Line / Тонкая Грань.

02. 01/Sep/2015 Family is Family
03. 08/Sep/2015 O'Bannon's Wake
04. 15/Sep/2015 Ladies Night
05. 22/Sep/2015 A Token of Our Appreciation
06. 29/Sep/2015 A Good Shooting
Общее:
Формат : Matroska
Версия формата : Version 4 / Version 2
Размер файла : 1,72 Гбайт
Продолжительность : 42 м.
Общий поток : 5852 Кбит/сек
Дата кодирования : UTC 2015-08-27 19:15:05
Программа кодирования : mkvmerge v8.2.0 ('World of Adventure') 32bit
Библиотека кодирования : libebml v1.3.1 + libmatroska v1.4.2
DURATION : 00:42:07.872000000
NUMBER_OF_FRAMES : 78996
NUMBER_OF_BYTES : 121337856
_STATISTICS_WRITING_APP : mkvmerge v8.2.0 ('World of Adventure') 32bit
_STATISTICS_WRITING_DATE_UTC : 2015-08-27 19:15:05
_STATISTICS_TAGS : BPS DURATION NUMBER_OF_FRAMES NUMBER_OF_BYTES
Видео:
Формат : AVC
Формат/Информация : Advanced Video Codec
Профиль формата : High@L4
Параметр CABAC формата : Да
Параметр ReFrames формата : 4 кадра
Идентификатор кодека : V_MPEG4/ISO/AVC
Продолжительность : 42 м.
Битрейт : 4967 Кбит/сек
Ширина : 1920 пикселей
Высота : 1080 пикселей
Соотношение сторон : 16:9
Режим частоты кадров : Постоянный
Частота кадров : 23,976 кадра/сек
Цветовое пространство : YUV
Субдискретизация насыщенности : 4:2:0
Битовая глубина : 8 бит
Тип развёртки : Прогрессивная
Бит/(Пиксели*Кадры) : 0.100
Размер потока : 1,46 Гбайт (85%)
Язык : English
Default : Да
Forced : Нет
Цветовой диапазон : Limited
Основные цвета : BT.709
Характеристики трансфера : BT.709
Коэффициенты матрицы : BT.709
Аудио #1:
Формат : AC-3
Формат/Информация : Audio Coding 3
Расширение режима : CM (complete main)
Параметр Endianness формата : Big
Идентификатор кодека : A_AC3
Продолжительность : 42 м.
Вид битрейта : Постоянный
Битрейт : 384 Кбит/сек
Каналы : 6 каналов
Расположение каналов : Front: L C R, Side: L R, LFE
Частота : 48,0 КГц
Метод сжатия : С потерями
Размер потока : 116 Мбайт (7%)
Заголовок : NewStudio.TV
Язык : Russian
Default : Да
Forced : Нет
Аудио #2:
Формат : AC-3
Формат/Информация : Audio Coding 3
Расширение режима : CM (complete main)
Параметр Endianness формата : Big
Идентификатор кодека : A_AC3
Продолжительность : 42 м.
Вид битрейта : Постоянный
Битрейт : 384 Кбит/сек
Каналы : 6 каналов
Расположение каналов : Front: L C R, Side: L R, LFE
Частота : 48,0 КГц
Метод сжатия : С потерями
Размер потока : 116 Мбайт (7%)
Язык : English
Default : Нет
Forced : Нет
Внимание! Раздача ведётся путём добавления новых серий; при каждом добавлении создаётся новый торрент. Чтобы начать докачку новой серии, пользователям необходимо сделать следующее:
(1) остановить скачивание,
(2) удалить старый торрент у себя из клиента (старые серии удалять не надо),
(3) скачать новый торрент и запустить его у себя в клиенте вместо старого, при этом указать клиенту путь в старую папку куда и должно происходить скачивание новых серий.
Ваш клиент при этом должен произвести хеширование (проверку) старой папки (если не производит сам - помогите ему сделать это), и будет докачивать только те серии которых у вас ещё нет. Старые серии при этом не удаляются, а продолжают раздаваться!
Eсли вы уже удалили старые серии, то предотвратить повторную закачку старых серий можно, отжав галочку в соответствующих местах при запуске нового торрента. По возможности, желательно не удалять старые серии как можно дольше чтобы релизёр не столько продолжал раздавать старые серии, а смог сконцентрироваться на новых.



Скачать Общественная.мораль.Public.Morals.(Сезон.01.серии.01-06.из.10).(Эдвард.Бёрнс).[2015.драма.WEB-DL].[1080p].[MVO].(NewStudio).torrent без регистрации
Золото ЗОЛОТАЯ РАЗДАЧА! СКАЧАННОЕ НЕ ЗАСЧИТЫВАЕТСЯ! Золото
Дата: Зарегистрирован   [ Тип: внутренний ] Как тут cкачать?
MAGNET ссылка
MAGNET ссылка


Скачать .torrent

52 KB

Статус: проверено DHT
Скачан: торрент - 139 раз, раздача полностью - 0 раз
Размер: 10,21 GB
Оценка:  5 (Голосов: 1)
Поблагодарили: 1
Поделиться ссылкой на эту раздачу с друзьями:
В контактеFacebookОдноклассникиTwitterLivejournalМой МирLiveinternet
 

 
Показать сообщения:    


Вы не можете начинать темы
Вы не можете отвечать на сообщения
Вы не можете редактировать свои сообщения
Вы не можете удалять свои сообщения
Вы не можете голосовать в опросах
Вы не можете прикреплять файлы к сообщениям
Вы можете скачивать файлы