Loading...
Error

Скачать Фалько / Falco (02x01-06 из 06) (Robert Dannenberg и др.) [2013, детектив, драма, HDTV] [720p] [VO (т-студия "Ателье")] торрент без регистрации

 
Статистика раздачи
Размер:  12,42 GB   |    Скачан:  96 раз
Сидов:  1  [  0 KB/s  ]  
 
Автор Сообщение

МихаНЕзатор

[] 

Название: Фалько
Оригинальное название: Falco
Год выпуска: 2013
Страна: Франция
Жанр: Детектив, драма
Продолжительность: 54 мин

Перевод: 1-4 Любительский (двухголосый закадровый) Vicotry-Films
5-6 Любительский (одноголосый закадровый) т-студия "Ателье"

Режиссёр: Robert Dannenberg, Stefan Scheich

В ролях: Sagamore Stévenin - Александр Фалько, Clément Manuel - Ромэн Шевалье, Alexia Barlier - Эва Блюм, Mathilde Lebrequier - Кароль Сарда-Фалько, Arno Chevrier - Жан-Поль Менар

Описание: Фалько открывает глаза на больничной койке. Ему кажется, что прошло несколько дней. Но он провел в коме 22 года. Времена изменились. Его жена устроила свою жизнь. Его дочь выросла. На работе его отправили в отставку. Мир Фалько разрушился. Выйдя из больницы, Фалько решает начать свою жизнь с чистого листа.



Доп. информация: Перевод - Полина Котова (Seabiscuit)
Видео предоставлено: ClubMember

Качество: HDTV 720p
Контейнер: MKV
Видео: AVC 1280x720 25.000 4862 Kbps
Аудио: Русский AC-3 48.0 KHz 2 channels 192 Kbps
Субтитры: отсутствуют

АНОНСЫ ПОПУЛЯРНЫХ РАЗДАЧ

General
Format : Matroska
Format version : Version 4 / Version 2
File size : 1.96 GiB
Duration : 54mn 22s
Overall bit rate : 5 157 Kbps
Encoded date : UTC 2015-08-20 08:14:44
Writing application : mkvmerge v6.0.0 ('Coming Up For Air') built on Jan 20 2013 09:52:00
Writing library : libebml v1.3.0 + libmatroska v1.4.0

Video
ID : 1
Format : AVC
Format/Info : Advanced Video Codec
Format profile : Main@L3.1
Format settings, CABAC : Yes
Format settings, ReFrames : 1 frame
Codec ID : V_MPEG4/ISO/AVC
Duration : 54mn 22s
Bit rate : 4 862 Kbps
Width : 1 280 pixels
Height : 720 pixels
Display aspect ratio : 16:9
Frame rate mode : Constant
Frame rate : 25.000 fps
Color space : YUV
Chroma subsampling : 4:2:0
Bit depth : 8 bits
Scan type : Progressive
Bits/(Pixel*Frame) : 0.211
Stream size : 1.85 GiB (94%)
Default : Yes
Forced : No

Audio
ID : 2
Format : AC-3
Format/Info : Audio Coding 3
Mode extension : CM (complete main)
Format settings, Endianness : Big
Codec ID : A_AC3
Duration : 54mn 22s
Bit rate mode : Constant
Bit rate : 192 Kbps
Channel(s) : 2 channels
Channel positions : Front: L R
Sampling rate : 48.0 KHz
Bit depth : 16 bits
Compression mode : Lossy
Stream size : 74.7 MiB (4%)
Language : Russian
Default : Yes
Forced : No



Скачать Фалько.Falco.(02x01-06.из.06).(Robert.Dannenberg.и.др.).[2013.детектив.драма.HDTV].[720p].[VO.(т-студия."Ателье")].torrent без регистрации
Золото ЗОЛОТАЯ РАЗДАЧА! СКАЧАННОЕ НЕ ЗАСЧИТЫВАЕТСЯ! Золото
Дата: Зарегистрирован   [ Тип: внутренний ] Как тут cкачать?
MAGNET ссылка
MAGNET ссылка


Скачать .torrent

63 KB

Статус: проверено DHT
Скачан: торрент - 96 раз, раздача полностью - 4 раз
Размер: 12,42 GB
Оценка:  - (Голосов: 0)
Поблагодарили: 1
Поделиться ссылкой на эту раздачу с друзьями:
В контактеFacebookОдноклассникиTwitterLivejournalМой МирLiveinternet
 

 
Показать сообщения:    


Вы не можете начинать темы
Вы не можете отвечать на сообщения
Вы не можете редактировать свои сообщения
Вы не можете удалять свои сообщения
Вы не можете голосовать в опросах
Вы не можете прикреплять файлы к сообщениям
Вы можете скачивать файлы