Loading...
Error

Скачать Несгибаемая Кимми Шмидт / Unbreakable Kimmy Schmidt (сезон 01) (Тристрам Шапиро, Майкл Энглер) [2015, комедия, WEBRip] [720p] [MVO (NewStudio)]+[Eng] торрент без регистрации

 
Статистика раздачи
Размер:  9,56 GB   |    Скачан:  90 раз
Сидов:  1  [  0 KB/s  ]  
 
Автор Сообщение

МихаНЕзатор

[] 

Информация о сериале
Название: Несгибаемая Кимми Шмидт
Оригинальное название: Unbreakable Kimmy Schmidt
Год выхода: 2015
Жанр: комедия
Авторы идеи: Тина Фей /Tina Fey/, Роберт Кэрлок /Robert Carlock/
Режиссеры: Тристрам Шапиро /Tristram Shapeero/, Майкл Энглер /Michael Engler/, Бет МакКарти-Миллер /Beth McCarthy-Miller/ и др.

В ролях: Элли Кемпер /Ellie Kemper/, Тайтус Бёрджесс /Tituss Burgess/, Кэрол Кейн /Carol Kane/, Джейн Краковски /Jane Krakowski/, Дилан Гелула /Dylan Gelula/, Ки Хонг Ли /Ki Hong Lee/, Адам Кэмпбелл /Adam Campbell/, Сара Чейз /Sara Chase/, Лорен Адамс /Lauren Adams/, Сол Миранда /Sol Miranda/ и др.

О сериале: 29-летняя Кимми Шмидт после спасения из культа поклонения концу света начинает новую жизнь в Нью-Йорке. Она вместе с актёром-неудачником Титом снимает квартиру у грубоватой Лиллиан, устраивается на работу няней в богатую семью к несчастной и одинокой Жаклин и пытается забыть о своём прошлом.

Релиз от:

Перевод: Александра Цернант, Наталья Черненко, Юля Мейер, Юрий Башенкер, Алексей Корягин

Страна: США
Студии: Little Stranger / Bevel Gears / 3 Arts Entertainment / Universal TV
Продолжительность: 13 x ~ 00:23:00
Перевод: Профессиональный (многоголосый, закадровый) - NewStudio

Файл
Кодек: H.264
Качество: WEBRip 720p
Видео: 1280x720 at 23.976 fps, x264@L4.1, crf, ~4000 kbps avg
Аудио#1: Russian: 48 kHz, AC3, 3/2 (L,C,R,l,r) + LFE ch, ~384.00 kbps avg |Многоголосый закадровый, NewStudio|
Аудио#2: English: 48 kHz, AC3, 3/2 (L,C,R,l,r) + LFE ch, ~640.00 kbps avg |Оригинал|
Субтитры: Russian (Forced - песни)

АНОНСЫ ПОПУЛЯРНЫХ РАЗДАЧ
01. Kimmy Goes Outside! / Кимми на свободе!
02. Kimmy Gets a Job! / Кимми находит работу!
03. Kimmy Goes on a Date! / Кимми идёт на свидание!
04. Kimmy Goes to the Doctor! / Кимми идёт к врачу!
05. Kimmy Kisses a Boy! / Кимми целует парня!
06. Kimmy Goes to School! / Кимми идёт в школу!
07. Kimmy Goes to a Party! / Кимми идёт на вечеринку!
08. Kimmy Is Bad at Math! / Кимми не ладит с математикой!
09. Kimmy Has a Birthday! / Кимми празднует День рождения!
10. Kimmy's in a Love Triangle! / Кимми попадает в любовный треугольник!
11. Kimmy Rides a Bike! / Кимми верхом на велосипеде!
12. Kimmy Goes to Court! / Кимми идёт в суд!
13. Kimmy Makes Waffles! / Кимми готовит вафли!
General
Complete name : Unbreakable.Kimmy.Schmidt.s01e01.WEBRip.720p.NewStudio.TV.mkv
Format : Matroska
Format version : Version 4 / Version 2
File size : 851 MiB
Duration : 23mn 51s
Overall bit rate : 4 987 Kbps
Encoded date : UTC 2015-03-07 19:44:56
Writing application : mkvmerge v7.4.0 ('Circles') 64bit
Writing library : libebml v1.3.0 + libmatroska v1.4.1
_STATISTICS_WRITING_APP : mkvmerge v7.4.0 ('Circles') 64bit
_STATISTICS_WRITING_DATE_UTC : 2015-03-07 19:44:56
_STATISTICS_TAGS : BPS DURATION NUMBER_OF_FRAMES NUMBER_OF_BYTES
DURATION : 00:22:04.037000000
NUMBER_OF_FRAMES : 42
NUMBER_OF_BYTES : 1780

Video
ID : 1
Format : AVC
Format/Info : Advanced Video Codec
Format profile : High@L4.1
Format settings, CABAC : Yes
Format settings, ReFrames : 5 frames
Codec ID : V_MPEG4/ISO/AVC
Duration : 23mn 51s
Bit rate : 3 864 Kbps
Width : 1 280 pixels
Height : 720 pixels
Display aspect ratio : 16:9
Frame rate mode : Constant
Frame rate : 23.976 fps
Color space : YUV
Chroma subsampling : 4:2:0
Bit depth : 8 bits
Scan type : Progressive
Bits/(Pixel*Frame) : 0.175
Stream size : 659 MiB (77%)
Writing library : x264 core 146 r2538 121396c
Encoding settings : cabac=1 / ref=5 / deblock=1:0:0 / analyse=0x3:0x113 / me=umh / subme=8 / psy=1 / psy_rd=1.00:0.00 / mixed_ref=1 / me_range=16 / chroma_me=1 / trellis=1 / 8x8dct=1 / cqm=0 / deadzone=21,11 / fast_pskip=1 / chroma_qp_offset=-2 / threads=12 / lookahead_threads=2 / sliced_threads=0 / nr=0 / decimate=1 / interlaced=0 / bluray_compat=0 / constrained_intra=0 / bframes=3 / b_pyramid=2 / b_adapt=2 / b_bias=0 / direct=3 / weightb=1 / open_gop=0 / weightp=2 / keyint=250 / keyint_min=23 / scenecut=40 / intra_refresh=0 / rc_lookahead=50 / rc=crf / mbtree=1 / crf=18.0 / qcomp=0.60 / qpmin=0 / qpmax=69 / qpstep=4 / ip_ratio=1.40 / aq=1:1.00
Language : English
Default : Yes
Forced : No
Color range : Limited
Matrix coefficients : BT.709
_STATISTICS_WRITING_APP : mkvmerge v7.4.0 ('Circles') 64bit
_STATISTICS_WRITING_DATE_UTC : 2015-03-07 19:44:56
_STATISTICS_TAGS : BPS DURATION NUMBER_OF_FRAMES NUMBER_OF_BYTES
DURATION : 00:23:51.724000000
NUMBER_OF_FRAMES : 34327
NUMBER_OF_BYTES : 709063916

Audio #1
ID : 2
Format : AC-3
Format/Info : Audio Coding 3
Mode extension : CM (complete main)
Format settings, Endianness : Big
Codec ID : A_AC3
Duration : 23mn 51s
Bit rate mode : Constant
Bit rate : 384 Kbps
Channel(s) : 6 channels
Channel positions : Front: L C R, Side: L R, LFE
Sampling rate : 48.0 KHz
Compression mode : Lossy
Stream size : 65.5 MiB (8%)
Title : NewStudio.TV
Language : Russian
Default : Yes
Forced : No

Audio #2
ID : 3
Format : AC-3
Format/Info : Audio Coding 3
Mode extension : CM (complete main)
Format settings, Endianness : Big
Codec ID : A_AC3
Duration : 23mn 51s
Bit rate mode : Constant
Bit rate : 640 Kbps
Channel(s) : 6 channels
Channel positions : Front: L C R, Side: L R, LFE
Sampling rate : 48.0 KHz
Compression mode : Lossy
Stream size : 109 MiB (13%)
Language : English
Default : No
Forced : No

Text
ID : 4
Format : UTF-8
Codec ID : S_TEXT/UTF8
Codec ID/Info : UTF-8 Plain Text
Title : Forced
Language : Russian
Default : Yes
Forced : No



Скачать Несгибаемая.Кимми.Шмидт.Unbreakable.Kimmy.Schmidt.(сезон.01).(Тристрам.Шапиро.Майкл.Энглер).[2015.комедия.WEBRip].[720p].[MVO.(NewStudio)]+[Eng].torrent без регистрации
Золото ЗОЛОТАЯ РАЗДАЧА! СКАЧАННОЕ НЕ ЗАСЧИТЫВАЕТСЯ! Золото
Дата: Зарегистрирован   [ Тип: внутренний ] Как тут cкачать?
MAGNET ссылка
MAGNET ссылка


Скачать .torrent

50 KB

Статус: проверено DHT
Скачан: торрент - 90 раз, раздача полностью - 9 раз
Размер: 9,56 GB
Оценка:  - (Голосов: 0)
Поблагодарили: 0
Поделиться ссылкой на эту раздачу с друзьями:
В контактеFacebookОдноклассникиTwitterLivejournalМой МирLiveinternet
 

 
Показать сообщения:    


Вы не можете начинать темы
Вы не можете отвечать на сообщения
Вы не можете редактировать свои сообщения
Вы не можете удалять свои сообщения
Вы не можете голосовать в опросах
Вы не можете прикреплять файлы к сообщениям
Вы можете скачивать файлы