Loading...
Error

Скачать Эмос и Эндрю / Amos & Andrew (Э. Макс Фрай) [1993, комедия, криминал, WEB-DLRip-AVC] [MVO]+[AVO (А.Гаврилов)]+[Оригинал]+[Sub] торрент без регистрации

 
Статистика раздачи
Размер:  2,11 GB   |    Скачан:  62 раза
Сидов:  1  [  0 KB/s  ]  
 
Автор Сообщение

Marsianka

[] 

Эмос и Эндрю / Amos & Andrew (1993) WEB-DLRip-AVC
Производство: США, New Line Cinema, Castle Rock Entertainment, Columbia Pictures Corporation
Жанр: комедия, криминал

Режиссер: Э. Макс Фрай
Актеры: Сэмюэл Л. Джексон, Майкл Лернер, Маргарет Колин, Николас Кейдж, Дэбни Коулмэн, Брэд Дуриф, Челси Росс, И.М. Хобсон, Джефф Блуменкрантц, Тодд Викс

Описание:
Эндрю Стерлинг, известный драматург, лауреат Пулитцеровской премии, решил купить себе домик на острове. Остров отдельный, и домик отдельный. Эндрю решил - и купил. А с вселением возникли трудности: сосед принял нового хозяина фешенебельного особняка за грабителя. И стремительно вызвал полицию. Но это еще не все. Здесь же, на острове, была тюрьма, а в тюрьме сидел один заключенный. Молодой парень по имени Эмос… Но и это еще не все. Шеф местной полиции Сесил Толливер, выдвинувший свою кандидатуру на пост комиссара округа, поспешил поверить в то, что у грабителя в руках якобы находятся заложники. И когда к месту грядущих грандиозных событий вслед за полицией прибыли репортеры, начался кавардак, какой только в канун выборов и может происходить!



Релиз от: FAGOT100 (NNM-CLUB)
Продолжительность: 01:35:33
Качество видео: WEB-DLRip-AVC
Перевод: Профессиональный (многоголосый, закадровый), авторский (одноголосый, закадровый)
Язык субтитров: Английский
Вид субтитров: Вшитые отключаемые

Видео: AVC, 1024x552 (1.855), 23.976 fps, 2 449 Kbps (0.181 bit/pixel)
Аудио #1: AC-3, 48.0 KHz, 2 ch, 192 Kbps, CBR (Russian) - многоголосый
Аудио #2: AC-3, 48.0 KHz, 6 ch, 384 Kbps, CBR (Russian) - А.Гаврилов
Аудио #3: AAC LC, 48.0 KHz, 2 ch, 157 kbps (English) - оригинал
Duration: 01:35:34 (5733.73)
Track #1: video
lang: Unknown (1)
codc: V_MPEG4/ISO/AVC -> H264/AVC (22)
reso: 1024x552 -> Unknown (aka not common)
fram: 23.976 fps
rate: 2449 kbps (2448.73)
dura: 01:35:34 (5733.69)
size: 1.63 GB (1755029632)
Track #2: audio (￐ワ￐ᄑ￐ᄒ￐ᄈ￐ᄒ￐ᄈ￐ᄒ￐ᄏ￐ᄒ￑チ￑ヒ￐ᄍ)
lang: rus -> Russian (15)
codc: A_AC3 -> AC3 (2)
chan: 2 -> Stereo
samp: 48000 Hz
rate: 184 kbps (184.17)
dura: 01:35:27 (5727.39)
size: 125.74 MB (131850759)
Track #3: audio (￐ミ￐ᄇ￑ツ￐ᄒ￑タ￑チ￐ᄎ￐ᄌ￐ᄍ ￐ミ.￐モ￐ᄚ￐ᄇ￑タ￐ᄌ￐ᄏ￐ᄒ￐ᄇ)
lang: rus -> Russian (15)
codc: A_AC3 -> AC3 (2)
chan: 6 -> 5.1 Surround
samp: 48000 Hz
rate: 368 kbps (368.32)
dura: 01:35:33 (5732.67)
size: 251.70 MB (263929911)
Track #4: audio (Amos.And.Andrew.1993.720p.WEB-DL.AAC2.0.H264-FGT)
lang: Unknown (1)
codc: A_AAC -> AAC (9)
chan: 2 -> Stereo
samp: 48000 Hz
rate: 157 kbps (157.03)
dura: 01:35:30 (5729.64)
size: 107.25 MB (112463469)
Track #5: subtitles (CC)
lang: Unknown (1)
type: S_TEXT/UTF8 -> SRT (3)
size: 61.46 KB (62933)
Sizes: (check sanity)
disk: 2.11 GB (2265195819)
atts: 228.48 KB (233965)
trac: 2.11 GB (2263336704) [based on track size]
bitr: 2.11 GB (2263544740) [based on bitrate]
tdif: 1.55 MB (1625150) 0.07%
bdif: 1.35 MB (1417113) 0.06%
Формат : Matroska
Версия формата : Version 2
Размер файла : 2,11 Гбайт
Продолжительность : 1 ч. 35 м.
Общий поток : 3161 Кбит/сек
Дата кодирования : UTC 2015-08-30 08:25:54
Программа кодирования : mkvmerge v5.3.0 ('I could have danced') built on Feb 9 2012 10:38:07
Библиотека кодирования : libebml v1.2.3 + libmatroska v1.3.0
Attachment : Yes

Видео
Идентификатор : 1
Формат : AVC
Формат/Информация : Advanced Video Codec
Профиль формата : High@L4.1
Параметр CABAC формата : Да
Параметр ReFrames формата : 10 кадров
Идентификатор кодека : V_MPEG4/ISO/AVC
Продолжительность : 1 ч. 35 м.
Номинальный битрейт : 2449 Кбит/сек
Ширина : 1024 пикселя
Высота : 552 пикселя
Соотношение сторон : 1,85:1
Режим частоты кадров : Постоянный
Частота кадров : 23,976 кадра/сек
Цветовое пространство : YUV
Субдискретизация насыщенности : 4:2:0
Битовая глубина : 8 бит
Тип развёртки : Прогрессивная
Бит/(Пиксели*Кадры) : 0.181
Библиотека кодирования : x264 core 146 r2538 121396c
Настройки программы : cabac=1 / ref=10 / deblock=1:-3:-3 / analyse=0x3:0x133 / me=umh / subme=11 / psy=1 / psy_rd=1.00:0.05 / mixed_ref=1 / me_range=32 / chroma_me=1 / trellis=2 / 8x8dct=1 / cqm=0 / deadzone=21,11 / fast_pskip=0 / chroma_qp_offset=-3 / threads=12 / lookahead_threads=1 / sliced_threads=0 / nr=0 / decimate=0 / interlaced=0 / bluray_compat=0 / constrained_intra=0 / bframes=6 / b_pyramid=2 / b_adapt=2 / b_bias=0 / direct=3 / weightb=1 / open_gop=0 / weightp=2 / keyint=240 / keyint_min=23 / scenecut=40 / intra_refresh=0 / rc=2pass / mbtree=0 / bitrate=2449 / ratetol=1.0 / qcomp=0.60 / qpmin=0 / qpmax=69 / qpstep=4 / cplxblur=20.0 / qblur=0.5 / ip_ratio=1.40 / pb_ratio=1.30 / aq=1:1.00
Язык : English
Default : Да
Forced : Нет

Аудио #1
Идентификатор : 2
Формат : AC-3
Формат/Информация : Audio Coding 3
Расширение режима : CM (complete main)
Параметр Endianness формата : Big
Идентификатор кодека : A_AC3
Продолжительность : 1 ч. 35 м.
Вид битрейта : Постоянный
Битрейт : 192 Кбит/сек
Каналы : 2 канала
Расположение каналов : Front: L R
Частота : 48,0 КГц
Битовая глубина : 16 бит
Метод сжатия : С потерями
Задержка видео : 10 мс.
Размер потока : 131 Мбайт (6%)
Заголовок : Многоголосый
Язык : Russian
Default : Да
Forced : Нет

Аудио #2
Идентификатор : 3
Формат : AC-3
Формат/Информация : Audio Coding 3
Расширение режима : CM (complete main)
Параметр Endianness формата : Big
Идентификатор кодека : A_AC3
Продолжительность : 1 ч. 35 м.
Вид битрейта : Постоянный
Битрейт : 384 Кбит/сек
Каналы : 6 каналов
Расположение каналов : Front: L C R, Side: L R, LFE
Частота : 48,0 КГц
Битовая глубина : 16 бит
Метод сжатия : С потерями
Задержка видео : 9 мс.
Размер потока : 262 Мбайт (12%)
Заголовок : Авторский А.Гаврилов
Язык : Russian
Default : Нет
Forced : Нет

Аудио #3
Идентификатор : 4
Формат : AAC
Формат/Информация : Advanced Audio Codec
Профиль формата : LC
Идентификатор кодека : A_AAC
Продолжительность : 1 ч. 35 м.
Каналы : 2 канала
Расположение каналов : Front: L R
Частота : 48,0 КГц
Метод сжатия : С потерями
Заголовок : Amos.And.Andrew.1993.720p.WEB-DL.AAC2.0.H264-FGT
Язык : English
Default : Нет
Forced : Нет

Текст
Идентификатор : 5
Формат : UTF-8
Идентификатор кодека : S_TEXT/UTF8
Идентификатор кодека/Информация : UTF-8 Plain Text
Заголовок : CC
Язык : English
Default : Да
Forced : Нет

Меню
00:00:00.000 : en:1
00:07:32.000 : en:2
00:22:17.000 : en:3
00:40:13.000 : en:4
00:50:40.000 : en:5
01:06:38.000 : en:6
01:20:25.000 : en:7



Скачать Эмос.и.Эндрю.Amos.&.Andrew.(Э.Макс.Фрай).[1993.комедия.криминал.WEB-DLRip-AVC].[MVO]+[AVO.(А.Гаврилов)]+[Оригинал]+[Sub].torrent без регистрации
Золото ЗОЛОТАЯ РАЗДАЧА! СКАЧАННОЕ НЕ ЗАСЧИТЫВАЕТСЯ! Золото
Дата: Зарегистрирован   [ Тип: внутренний ] Как тут cкачать?
MAGNET ссылка
MAGNET ссылка


Скачать .torrent

11 KB

Статус: проверено DHT
Скачан: торрент - 62 раз, раздача полностью - 9 раз
Размер: 2,11 GB
Оценка:  - (Голосов: 0)
Поблагодарили: 1
Поделиться ссылкой на эту раздачу с друзьями:
В контактеFacebookОдноклассникиTwitterLivejournalМой МирLiveinternet
 

 
Показать сообщения:    


Вы не можете начинать темы
Вы не можете отвечать на сообщения
Вы не можете редактировать свои сообщения
Вы не можете удалять свои сообщения
Вы не можете голосовать в опросах
Вы не можете прикреплять файлы к сообщениям
Вы можете скачивать файлы