Loading...
Error

Скачать Эмос и Эндрю / Amos & Andrew (Э. Макс Фрай) [1993, комедия, криминал, DVDRip] [DVO] торрент без регистрации

 
Статистика раздачи
Размер:  746 MB   |    Скачан:  60 раз
Сидов:  1  [  0 KB/s  ]  
 
Автор Сообщение

Marsianka

[] 

«Не в том месте, не в то время»

Год выпуска: 1993
Страна: США
Жанр: комедия, криминал
Продолжительность: 01:31:42

Перевод: Профессиональный (двухголосый закадровый)
Субтитры: нет
Оригинальная аудиодорожка: нет

Режиссер: Э. Макс Фрай / E. Max Frye

В ролях: Николас Кейдж / Nicolas Cage, Сэмюэл Л. Джексон / Samuel L. Jackson, Майкл Лернер / Michael Lerner, Маргарет Колин / Margaret Colin, Джанкарло Эспозито / Giancarlo Esposito, Боб Балабан / Bob Balaban, Брэд Дуриф / Brad Dourif, Челси Росс / Chelcie Ross, Джоди Лонг / Jodi Long, И. М. Хобсон / I. M. Hobson, Дэбни Коулман / Dabney Coleman, Трэйси Уолтер / Tracey Walter

Описание: Эндрю Стерлинг, драматург, лауреат Пулитцеровской премии, купил себе «домик» на острове. Но сосед принял нового хозяина фешенебельного особняка за грабителя. И вызвал полицию. Но это еще не все.
Здесь же, на острове, была тюрьма, где сидел один заключенный — молодой парень Эмос… Но и это еще не все.


Исходник: DVD5 R5
Тип релиза: DVDRip
Контейнер: AVI

Видео: 624x480 (1300:1), 25 fps, XviD ~ 1000 kbps avg, 0.134 bit/pixel
Аудио: 48 kHz, MP3, 2 ch, 128.00 kbps

Общее
Полное имя : Jemos.i.Jendrju.1993.DVDRip_[Youtracker]_by_AVP Studio.avi
Формат : AVI
Формат/Информация : Audio Video Interleave
Размер файла : 746 Мбайт
Продолжительность : 1 ч. 31 м.
Общий поток : 1137 Кбит/сек
Программа кодирования : VirtualDubMod 1.5.10.3 | www.virtualdub-fr.org || (build 2550/release)
Библиотека кодирования : VirtualDubMod build 2550/release

Видео
Идентификатор : 0
Формат : MPEG-4 Visual
Профиль формата : Advanced Simple@L5
Параметр BVOP формата : 1
Параметр QPel формата : Нет
Параметр GMC формата : Без точки перехода
Параметр матрицы формата : Выборочная
Идентификатор кодека : XVID
Идентификатор кодека/Подсказка : XviD
Продолжительность : 1 ч. 31 м.
Битрейт : 1000 Кбит/сек
Ширина : 624 пикселя
Высота : 480 пикселей
Соотношение сторон : 1,300
Частота кадров : 25,000 кадров/сек
Цветовое пространство : YUV
Субдискретизация насыщенности : 4:2:0
Битовая глубина : 8 бит
Тип развёртки : Прогрессивная
Метод сжатия : С потерями
Бит/(Пиксели*Кадры) : 0.134
Размер потока : 656 Мбайт (88%)
Библиотека кодирования : XviD 65

Аудио
Идентификатор : 1
Формат : MPEG Audio
Версия формата : Version 1
Профиль формата : Layer 3
Идентификатор кодека : 55
Идентификатор кодека/Подсказка : MP3
Продолжительность : 1 ч. 31 м.
Вид битрейта : Постоянный
Битрейт : 128 Кбит/сек
Каналы : 2 канала
Частота : 48,0 КГц
Метод сжатия : С потерями
Размер потока : 84,0 Мбайт (11%)
Выравнивание : Соединение по промежуткам
Продолжительность промежутка : 40 мс. (1,00 видеокадр)
Время предзагрузки промежутка : 504 мс.
Библиотека кодирования : L3.99r
Настройки программы : -m s -V 4 -q 2 -lowpass 17 -b 128



Скачать Эмос.и.Эндрю.Amos.&.Andrew.(Э.Макс.Фрай).[1993.комедия.криминал.DVDRip].[DVO].torrent без регистрации
Золото ЗОЛОТАЯ РАЗДАЧА! СКАЧАННОЕ НЕ ЗАСЧИТЫВАЕТСЯ! Золото
Дата: Зарегистрирован   [ Тип: внутренний ] Как тут cкачать?
MAGNET ссылка
MAGNET ссылка


Скачать .torrent

16 KB

Статус: проверено DHT
Скачан: торрент - 60 раз, раздача полностью - 0 раз
Размер: 746 MB
Оценка:  - (Голосов: 0)
Поблагодарили: 0
Поделиться ссылкой на эту раздачу с друзьями:
В контактеFacebookОдноклассникиTwitterLivejournalМой МирLiveinternet
 

 
Показать сообщения:    


Вы не можете начинать темы
Вы не можете отвечать на сообщения
Вы не можете редактировать свои сообщения
Вы не можете удалять свои сообщения
Вы не можете голосовать в опросах
Вы не можете прикреплять файлы к сообщениям
Вы можете скачивать файлы