Loading...
Error

Скачать Семейный план / Family Plan (Фред Гербер / Fred Gerber) [1997, комедия, семейный, DVDRip] [MVO] (НТВ+) + [Orig] торрент без регистрации

 
Статистика раздачи
Размер:  1,45 GB   |    Скачан:  99 раз
Сидов:  1  [  0 KB/s  ]  
 
Автор Сообщение

leon030982

[] 

Семейный план / Family Plan
Год выпуска: 1997
Страна: США
Жанр: комедия, семейный
Продолжительность: 01:32:24
Перевод: Профессиональный (многоголосый закадровый) НТВ+
Текст читали: Александр Котов, Жанна Никонова, Олег Вирозуб
Cубтитры: нет
Оригинальная аудиодорожка: английский

Режиссер: Фред Гербер / Fred Gerber

В ролях: Лесли Нильсен, Джадж Райнхолд, Эдди Боуз, Эмили Проктер, Захари Браун, Тревор Морган, Тони Розато, Гарри Морган, Джои Пирсон, Адам Бич, Кэти Фицджералд, Уильям Киллиан, Кристи Манден, Кевин Нэш, Барбара Эрл-Нильсен, Джозеф Нейбич, Лаура Мосс, Патрик Хилл, Джоэли Фишер, Билл Левассер

Описание: Каждое лето в живописной горной долине становится шумно и весело. Здесь находится один из лучших школьных лагерей Сидон, где дети без опаски могут отрываться на полную катушку. Но однажды "остров свободы" оказывается под угрозой: алчный строительный магнат Джеффри собирается построить на месте лагеря элитный курорт для "денежных мешков". Но директор детского дома, который пообещал своим подопечным хороший отдых, не собирается сдаваться. Он начинает борьбу, не гнушаясь ничем. Участвуют в этом также его папа Гарри Хебер (Лесли Нильсен) и двое изобретательных мальчишек...

СЭМПЛ

Качество видео: DVDRip
Формат видео: AVI
Видео: XviD, 704x384 ( 1.85:1), 25.000 fps, 1601 kbps avg
Аудио: Russian AC3 Dolby Digital, 48 kHz, 2/0 (L,R) ch, 192.00 kbps avg
Аудио 2: English AC3 Dolby Digital, 48 kHz, 3/2 (L,C,R,l,r), ~ 448.00 kbps avg

Цитата:

Рип smit009. Работа со звуком alex7691.
General
Complete name : F:\Family Plan_1997\Family Plan_1997.DVDRip.MVO.NTV+.avi
Format : AVI
Format/Info : Audio Video Interleave
File size : 1.45 GiB
Duration : 1h 32mn
Overall bit rate : 2 254 Kbps
Writing application : VirtualDubModRus 1.5.10.2 (build 2542/release)
Writing library : VirtualDubMod build 2542/release
Video
ID : 0
Format : MPEG-4 Visual
Format profile : Advanced Simple@L5
Format settings, BVOP : 1
Format settings, QPel : No
Format settings, GMC : No warppoints
Format settings, Matrix : Default (MPEG)
Codec ID : XVID
Codec ID/Hint : XviD
Duration : 1h 32mn
Bit rate : 1 601 Kbps
Width : 704 pixels
Height : 384 pixels
Display aspect ratio : 1.85:1
Frame rate : 25.000 fps
Color space : YUV
Chroma subsampling : 4:2:0
Bit depth : 8 bits
Scan type : Progressive
Compression mode : Lossy
Bits/(Pixel*Frame) : 0.237
Stream size : 1.03 GiB (71%)
Writing library : XviD 73
Audio #1
ID : 1
Format : AC-3
Format/Info : Audio Coding 3
Mode extension : CM (complete main)
Format settings, Endianness : Big
Codec ID : 2000
Duration : 1h 32mn
Bit rate mode : Constant
Bit rate : 192 Kbps
Channel(s) : 2 channels
Channel positions : Front: L R
Sampling rate : 48.0 KHz
Compression mode : Lossy
Stream size : 127 MiB (9%)
Alignment : Split accross interleaves
Interleave, duration : 40 ms (1.00 video frame)
Interleave, preload duratio : 500 ms
Audio #2
ID : 2
Format : AC-3
Format/Info : Audio Coding 3
Mode extension : CM (complete main)
Format settings, Endianness : Big
Codec ID : 2000
Duration : 1h 32mn
Bit rate mode : Constant
Bit rate : 448 Kbps
Channel(s) : 6 channels
Channel positions : Front: L C R, Side: L R, LFE
Sampling rate : 48.0 KHz
Compression mode : Lossy
Stream size : 295 MiB (20%)
Alignment : Split accross interleaves
Interleave, duration : 40 ms (1.00 video frame)
Interleave, preload duratio : 500 ms



Скачать Семейный.план.Family.Plan.(Фред.Гербер.Fred.Gerber).[1997.комедия.семейный.DVDRip].[MVO].(НТВ+).+.[Orig].torrent без регистрации
Золото ЗОЛОТАЯ РАЗДАЧА! СКАЧАННОЕ НЕ ЗАСЧИТЫВАЕТСЯ! Золото
Дата: Зарегистрирован   [ Тип: внутренний ] Как тут cкачать?
MAGNET ссылка
MAGNET ссылка


Скачать .torrent

15 KB

Статус: проверено DHT
Скачан: торрент - 99 раз, раздача полностью - 2 раз
Размер: 1,45 GB
Оценка:  5 (Голосов: 2)
Поблагодарили: 2
Поделиться ссылкой на эту раздачу с друзьями:
В контактеFacebookОдноклассникиTwitterLivejournalМой МирLiveinternet
 

 
Показать сообщения:    


Вы не можете начинать темы
Вы не можете отвечать на сообщения
Вы не можете редактировать свои сообщения
Вы не можете удалять свои сообщения
Вы не можете голосовать в опросах
Вы не можете прикреплять файлы к сообщениям
Вы можете скачивать файлы