Loading...
Error

Скачать Континуум / Continuum (сезон 04) (Пэт Уильямс) [2015, фантастика, триллер, WEB-DL] [720p] [MVO (LostFilm)]+[DVO (NewStudio)]+[Eng]+[Sub Rus, Eng] торрент без регистрации

 
Статистика раздачи
Размер:  9,64 GB   |    Скачан:  168 раз
Сидов:  1  [  0 KB/s  ]  
 
Автор Сообщение

МихаНЕзатор

[] 



Континуум / Continuum


Год выпуска: 2015
Страна: Канада
Жанр: Фантастика, боевик, триллер
Продолжительность: ~ 00:44:00
Перевод 1: Профессиональный многоголосый закадровый (LostFilm)
Перевод 2: Профессиональный двухголосый закадровый (NewStudio)
Режиссёр: Пэт Уильямс, Джон Кассар

В ролях: Рэйчел Николс, Эрик Надсен, Виктор Уэбстер, Стивен Лобо, Магда Апанович, Лекса Дойг, Роджер Р. Кросс, Брайан Маркинсон, Тони Амендола, Лувия Петерсен, Ричард Хэрмон, Дженнифер Спенс, Райан Роббинс , Иэн Трейси, Терри Чен и др.

Описание: Группа террористов-фанатиков, избежавшая казни в 2077 году, перемещается в наше время вместе с преследующим их полицейским Кирой Камерон.



Качество: WEB-DL 720p
Контейнер: MKV
Видео: MPEG-4 AVC, 1280x718, 16:9, ~4000 Кбит/с, 23.976 fps, ~0.181 bit/pixel
Аудио 1: Русский, AC3, 48.0 KHz, 6 channels, 384 Kbps (LostFilm)
Аудио 2: Русский, AC3, 48.0 KHz, 6 channels, 384 Kbps (NewStudio)
Аудио 3: Английский, AC3, 48.0 KHz, 6 channels, 384 Kbps (Original)
Субтитры: Русские [Coffee Translate], английские (softsub SRT)

Подробнее о релизе:
Работа со звуком LostFilm:
Работа со звуком NewStudio: NewStudio
Русские субтитры: от группы Coffee Translate на Notabenoid
Перевод субтитров: Grenada
Редактирование субтитров: GooFFi
Синхронизация субтитров: AlexMild
• Устранен рассинхрон оригинальных английских субтитров
• Релиз без рекламы


АНОНСЫ ПОПУЛЯРНЫХ РАЗДАЧ


Торрент обновлён, добавлена 6-я серия и двухголосый перевод!

Сезон 4, Серии 1-6
01: Потерянные часы / Lost Hours
02: Час пик / Rush Hour
03: Час власти / Power Hour
04: Час испытаний / Zero Hour
05: Час отчаяния / The Desperate Hours
06: Последний час / Final Hour
Общее
Уникальный идентификатор : 108097645008691935445966697371455743678 (0x5152D9618045879E581EDA2B5D2066BE)
Полное имя : /Continuum.S04.720p.WEB-DL.2xRus.Eng.Subs/Continuum.S04E01.720p.WEB-DL.2xRus.Eng.Subs.mkv
Формат : Matroska
Версия формата : Version 4 / Version 2
Размер файла : 1,61 Гбайт
Продолжительность : 44 м.
Общий поток : 5196 Кбит/сек
Название фильма : Continuum 4x01 (2015)
Дата кодирования : UTC 2015-11-10 03:05:05
Программа кодирования : mkvmerge v8.1.0 ('Psychedelic Postcard') 64bit
Библиотека кодирования : libebml v1.3.1 + libmatroska v1.4.2
Видео
Идентификатор : 1
Формат : AVC
Формат/Информация : Advanced Video Codec
Профиль формата : High@L3.1
Параметр CABAC формата : Нет
Параметр ReFrames формата : 2 кадра
Идентификатор кодека : V_MPEG4/ISO/AVC
Продолжительность : 44 м.
Битрейт : 3940 Кбит/сек
Ширина : 1280 пикселей
Высота : 718 пикселей
Соотношение сторон : 16:9
Режим частоты кадров : Постоянный
Частота кадров : 23,976 кадра/сек
Цветовое пространство : YUV
Субдискретизация насыщенности : 4:2:0
Битовая глубина : 8 бит
Тип развёртки : Прогрессивная
Бит/(Пиксели*Кадры) : 0.179
Размер потока : 1,22 Гбайт (76%)
Заголовок : Continuum 4x01 (2015)
Язык : Russian
Default : Да
Forced : Нет
Основные цвета : BT.709
Характеристики трансфера : BT.709
Коэффициенты матрицы : BT.709
Аудио #1
Идентификатор : 2
Формат : AC-3
Формат/Информация : Audio Coding 3
Расширение режима : CM (complete main)
Параметр Endianness формата : Big
Идентификатор кодека : A_AC3
Продолжительность : 44 м.
Вид битрейта : Постоянный
Битрейт : 384 Кбит/сек
Каналы : 6 каналов
Расположение каналов : Front: L C R, Side: L R, LFE
Частота : 48,0 КГц
Битовая глубина : 16 бит
Метод сжатия : С потерями
Размер потока : 122 Мбайт (7%)
Заголовок : LostFilm
Язык : Russian
Default : Да
Forced : Нет
Аудио #2
Идентификатор : 3
Формат : AC-3
Формат/Информация : Audio Coding 3
Расширение режима : CM (complete main)
Параметр Endianness формата : Big
Идентификатор кодека : A_AC3
Продолжительность : 44 м.
Вид битрейта : Постоянный
Битрейт : 384 Кбит/сек
Каналы : 6 каналов
Расположение каналов : Front: L C R, Side: L R, LFE
Частота : 48,0 КГц
Битовая глубина : 16 бит
Метод сжатия : С потерями
Размер потока : 122 Мбайт (7%)
Заголовок : NewStudio
Язык : Russian
Default : Нет
Forced : Нет
Аудио #3
Идентификатор : 4
Формат : AC-3
Формат/Информация : Audio Coding 3
Расширение режима : CM (complete main)
Параметр Endianness формата : Big
Идентификатор кодека : A_AC3
Продолжительность : 44 м.
Вид битрейта : Постоянный
Битрейт : 384 Кбит/сек
Каналы : 6 каналов
Расположение каналов : Front: L C R, Side: L R, LFE
Частота : 48,0 КГц
Битовая глубина : 16 бит
Метод сжатия : С потерями
Размер потока : 122 Мбайт (7%)
Заголовок : English
Язык : English
Default : Нет
Forced : Нет
Текст #1
Идентификатор : 5
Формат : UTF-8
Идентификатор кодека : S_TEXT/UTF8
Идентификатор кодека/Информация : UTF-8 Plain Text
Заголовок : Rus-sub [Coffee Translate]
Язык : Russian
Default : Нет
Forced : Нет
Текст #2
Идентификатор : 6
Формат : UTF-8
Идентификатор кодека : S_TEXT/UTF8
Идентификатор кодека/Информация : UTF-8 Plain Text
Заголовок : Eng-sub
Язык : English
Default : Нет
Forced : Нет

Внимание! Раздача ведётся путём добавления новых серий; при каждом добавлении создётся новый торрент. Чтобы начать докачку новой серии, пользователям необходимо сделать следующее:
Остановить скачивание.
Удалить старый торрент у себя из клиента (старые серии удалять не надо).
Скачать новый торрент и запустить его у себя в клиенте вместо старого, при этом указать клиенту путь в старую папку куда и должно происходить скачивание новых серий.
Ваш клиент при этом должен произвести хеширование (проверку) старой папки (если не производит сам - помогите ему сделать это), и будет докачивать только те серии которых у вас ещё нет. Старые серии при этом не удаляются, а продолжают раздаваться!
Eсли вы уже удалили старые серии, то предотвратить повторную закачку старых серий можно, отжав галочку в соответсвующих местах при запуске нового торрента. По возможности, желательно не удалять старые серии как можно дольше чтобы релизёр не столько продолжал раздавать старые серии, а смог сконцентрироваться на новых.



Скачать Континуум.Continuum.(сезон.04).(Пэт.Уильямс).[2015.фантастика.триллер.WEB-DL].[720p].[MVO.(LostFilm)]+[DVO.(NewStudio)]+[Eng]+[Sub.Rus.Eng].torrent без регистрации
Золото ЗОЛОТАЯ РАЗДАЧА! СКАЧАННОЕ НЕ ЗАСЧИТЫВАЕТСЯ! Золото
Дата: Зарегистрирован   [ Тип: внутренний ] Как тут cкачать?
MAGNET ссылка
MAGNET ссылка


Скачать .torrent

97 KB

Статус: проверено DHT
Скачан: торрент - 168 раз, раздача полностью - 2 раз
Размер: 9,64 GB
Оценка:  - (Голосов: 0)
Поблагодарили: 0
Поделиться ссылкой на эту раздачу с друзьями:
В контактеFacebookОдноклассникиTwitterLivejournalМой МирLiveinternet
 

 
Показать сообщения:    


Вы не можете начинать темы
Вы не можете отвечать на сообщения
Вы не можете редактировать свои сообщения
Вы не можете удалять свои сообщения
Вы не можете голосовать в опросах
Вы не можете прикреплять файлы к сообщениям
Вы можете скачивать файлы