Loading...
Error

Скачать Аляска Кид / Alaska Kid (сезон 01) (Джеймс Хилл) [1993, приключения, комедия, DVDRip] [DVO] торрент без регистрации

 
Статистика раздачи
Размер:  4,31 GB   |    Скачан:  107 раз
Сидов:  1  [  0 KB/s  ]  
 
Автор Сообщение

МихаНЕзатор

[] 

Информация о фильме
Название: Аляска Кид
Оригинальное название: Alaska Kid
Год выхода: 1993
Жанр: Сериал, приключения, комедия
Режиссер: Джеймс Хилл / James Hill

О фильме: Фильм создан по мотивам произведений Джека Лондона. Он рассказывает о приключениях журналиста-авантюриста Кристофера Белью по прозвищу Аляска Кид на Клондайке во времена «золотой лихорадки». Это было опасное приключение еще на стадии съемок. Результат - крепкий, драматичный сериал о сильных людях. Джек Лондон - гений...



Страна: Германия, Польша, Россия
Студия: CCC Filmkunst GmbH, Zespol Filmowy "Zodiak", Останкино, Союзкиносервис
Продолжительность: 13 х 00:52:00
Перевод: Профессиональный (двухголосый, закадровый)

Файл
Формат: avi
Качество: DVDRip
Видео: XviD, 640x480, 25fps, 785kbps
Аудио: MPEG Layer 3, 2ch, 44100Hz, 128kbps

АНОНСЫ ПОПУЛЯРНЫХ РАЗДАЧ

General
Complete name : Alaska.Kid.1993.P2.DVDRip.4200.13serii�1.avi
Format : AVI
Format/Info : Audio Video Interleave
File size : 340 MiB
Duration : 51mn 39s
Overall bit rate : 919 Kbps
Writing application : VirtualDubMod 1.5.4.1 (build 2178/release)
Writing library : VirtualDubMod build 2178/release

Video
ID : 0
Format : MPEG-4 Visual
Format profile : Advanced Simple@L5
Format settings, BVOP : 1
Format settings, QPel : No
Format settings, GMC : No warppoints
Format settings, Matrix : Default (H.263)
Muxing mode : Packed bitstream
Codec ID : XVID
Codec ID/Hint : XviD
Duration : 51mn 39s
Bit rate : 785 Kbps
Width : 640 pixels
Height : 480 pixels
Display aspect ratio : 4:3
Frame rate : 25.000 fps
Color space : YUV
Chroma subsampling : 4:2:0
Bit depth : 8 bits
Scan type : Progressive
Compression mode : Lossy
Bits/(Pixel*Frame) : 0.102
Stream size : 290 MiB (85%)
Writing library : XviD 1.2.1 (UTC 2008-12-04)

Audio
ID : 1
Format : MPEG Audio
Format version : Version 1
Format profile : Layer 3
Mode : Joint stereo
Mode extension : MS Stereo
Codec ID : 55
Codec ID/Hint : MP3
Duration : 51mn 39s
Bit rate mode : Constant
Bit rate : 128 Kbps
Channel(s) : 2 channels
Sampling rate : 44.1 KHz
Compression mode : Lossy
Stream size : 47.3 MiB (14%)
Alignment : Split accross interleaves
Interleave, duration : 80 ms (2.00 video frames)
Interleave, preload duration : 500 ms
Writing library : LAME3.98

01 - Золотая лихорадка
02 - Погребенные заживо
03 - Девичий костер
04 - Чудо любви
05 - Штурм Скво Крик
06 - Судебный процесс по делу Кида
07 - Король рулетки
08 - Наменые убийцы
09 - Поединок века
10 - Большие гонки
11 - Смертельный покер
12 - Яичный переполох
13 - Поединок в поднебесье



Скачать Аляска.Кид.Alaska.Kid.(сезон.01).(Джеймс.Хилл).[1993.приключения.комедия.DVDRip].[DVO].torrent без регистрации
Золото ЗОЛОТАЯ РАЗДАЧА! СКАЧАННОЕ НЕ ЗАСЧИТЫВАЕТСЯ! Золото
Дата: Зарегистрирован   [ Тип: внутренний ] Как тут cкачать?
MAGNET ссылка
MAGNET ссылка


Скачать .torrent

12 KB

Статус: проверено DHT
Скачан: торрент - 107 раз, раздача полностью - 9 раз
Размер: 4,31 GB
Оценка:  - (Голосов: 0)
Поблагодарили: 2
Поделиться ссылкой на эту раздачу с друзьями:
В контактеFacebookОдноклассникиTwitterLivejournalМой МирLiveinternet
 

 
Показать сообщения:    


Вы не можете начинать темы
Вы не можете отвечать на сообщения
Вы не можете редактировать свои сообщения
Вы не можете удалять свои сообщения
Вы не можете голосовать в опросах
Вы не можете прикреплять файлы к сообщениям
Вы можете скачивать файлы