Loading...
Error

Скачать Нарко / Narcos (сезон 01) (Жозе Падилья) [2015, драма, криминал, WEBRip-AVC] [MVO (NewStudio)] торрент без регистрации

 
Статистика раздачи
Размер:  7,08 GB   |    Скачан:  145 раз
Сидов:  1  [  0 KB/s  ]  
 
Автор Сообщение

МихаНЕзатор

[] 



Информация о фильме
Название: Нарки
Оригинальное название: Narcos
Год выхода: 2015
Жанр: драма, криминал
Режиссер: Жозе Падилья

В ролях: Вагнер Моура, Морис Комт, Бойд Холбрук, Педро Паскаль, Стефани Сигман, Роберто Урбина, Ана де ла Регера, Диего Катаньо, Хорхе А. Хименес

О фильме: Преступную деятельность будущий влиятельнейший наркобарон Колумбии Пабло Эскобар начал ещё в детстве с воровства и мошенничества, после он перешёл на рэкет, вооружённые налёты и похищение людей. Когда вокруг Пабло сформировалась мощная группировка он решил расширяться в сторону самого перспективного и бездонного рынка - поставки колумбийского кокаина в Соединённые Штаты, где основной проблемой Управления по борьбе с наркотиками до этого момента были лишь добродушные хиппи с их марихуаной. Американские нарки в кратчайшие сроки озолотили юного Пабло и дали ему неограниченную власть на родине, где наркобарон, благодаря своим вложениям в местную экономику, стал настоящим героем. Вместе с несколькими влиятельными коллегами Эскобар создаёт Медельинский кокаиновый картель, закупает всевозможную технику для контрабанды своей продукции на север и открывает множество лабораторий по производству белого порошка в безлюдных джунглях. Держа в страхе политиков Колумбии Пабло всегда добивался желаемого любой ценой, предоставляя потенциальным жертвам выбор между получением взятки и пулей в голову.



Страна: США
Продолжительность: ~ 00:45:00
Перевод: Профессиональный (многоголосый, закадровый) - NewStudio

Файл
Качество: WEBRip-AVC
Формат: MKV
Видео: MPEG-4 AVC, ~1650 Кбит/с, 1024x576
Аудио: AC3, 6 ch, 384 Кбит/с

АНОНСЫ ПОПУЛЯРНЫХ РАЗДАЧ


Торрент обновлён, добавлена 10-я серия!
General
Unique ID : 182815672240371690571953263279314777495 (0x8989048B12F43138357834871F473597)
Complete name : F:СериалыНарки [10] (2015) WEBRIP_AVC_ NewStudioNarcos.S01E02.576p.WEBRIP_AVC.[-=DoMiNo=-].mkv
Format : Matroska
Format version : Version 4 / Version 2
File size : 675 MiB
Duration : 45mn 56s
Overall bit rate : 2 054 Kbps
Writing application : XviD4PSP 7.0.170
Writing library : Lavf56.25.101
ENCODING_INFO : MATROSKA,WEBM > MKV / H264 > X264 CRF 19.0 Custom / AC3 > COPY

Video
ID : 1
Format : AVC
Format/Info : Advanced Video Codec
Format profile : High@L4.1
Format settings, CABAC : Yes
Format settings, ReFrames : 10 frames
Codec ID : V_MPEG4/ISO/AVC
Duration : 45mn 56s
Bit rate : 1 629 Kbps
Width : 1 024 pixels
Height : 576 pixels
Display aspect ratio : 16:9
Frame rate mode : Constant
Frame rate : 23.976 fps
Color space : YUV
Chroma subsampling : 4:2:0
Bit depth : 8 bits
Scan type : Progressive
Bits/(Pixel*Frame) : 0.115
Stream size : 535 MiB (79%)
Writing library : x264 core 148 r2597M e86f3a1
Encoding settings : cabac=1 / ref=10 / deblock=1:-3:-3 / analyse=0x3:0x133 / me=umh / subme=10 / psy=1 / psy_rd=1.00:0.10 / mixed_ref=1 / me_range=24 / chroma_me=1 / trellis=2 / 8x8dct=1 / cqm=0 / deadzone=21,11 / fast_pskip=0 / chroma_qp_offset=-3 / threads=5 / lookahead_threads=1 / sliced_threads=0 / nr=0 / decimate=1 / interlaced=0 / bluray_compat=0 / constrained_intra=0 / bframes=9 / b_pyramid=2 / b_adapt=2 / b_bias=0 / direct=1 / weightb=1 / open_gop=0 / weightp=2 / keyint=230 / keyint_min=23 / scenecut=40 / intra_refresh=0 / rc=crf / mbtree=0 / crf=19.0 / qcomp=0.60 / qpmin=16 / qpmax=69 / qpstep=4 / ip_ratio=1.40 / pb_ratio=1.30 / aq=1:1.00
Language : English
Default : Yes
Forced : No

Audio
ID : 2
Format : AC-3
Format/Info : Audio Coding 3
Mode extension : CM (complete main)
Format settings, Endianness : Big
Codec ID : A_AC3
Duration : 45mn 56s
Bit rate mode : Constant
Bit rate : 384 Kbps
Channel(s) : 6 channels
Channel positions : Front: L C R, Side: L R, LFE
Sampling rate : 48.0 KHz
Bit depth : 32 bits
Compression mode : Lossy
Stream size : 126 MiB (19%)
Language : Russian
Default : Yes
Forced : No



Скачать Нарко.Narcos.(сезон.01).(Жозе.Падилья).[2015.драма.криминал.WEBRip-AVC].[MVO.(NewStudio)].torrent без регистрации
Золото ЗОЛОТАЯ РАЗДАЧА! СКАЧАННОЕ НЕ ЗАСЧИТЫВАЕТСЯ! Золото
Дата: Зарегистрирован   [ Тип: внутренний ] Как тут cкачать?
MAGNET ссылка
MAGNET ссылка


Скачать .torrent

19 KB

Статус: проверено DHT
Скачан: торрент - 145 раз, раздача полностью - 14 раз
Размер: 7,08 GB
Оценка:  - (Голосов: 0)
Поблагодарили: 0
Поделиться ссылкой на эту раздачу с друзьями:
В контактеFacebookОдноклассникиTwitterLivejournalМой МирLiveinternet
 

 
Показать сообщения:    


Вы не можете начинать темы
Вы не можете отвечать на сообщения
Вы не можете редактировать свои сообщения
Вы не можете удалять свои сообщения
Вы не можете голосовать в опросах
Вы не можете прикреплять файлы к сообщениям
Вы можете скачивать файлы