Loading...
Error

Скачать Непокорная Земля / Вызов / Defiance (Сезон 03) (Майкл Нанкин) [2015, фантастика, боевик, драма, WEB-DLRip] MVO (LostFilm) + Original + Subs (Rus, Eng) торрент без регистрации

 
Статистика раздачи
Размер:  10,64 GB   |    Скачан:  118 раз
Сидов:  1  [  0 KB/s  ]  
 
Автор Сообщение

МихаНЕзатор

[] 

Непокорная Земля / Вызов / Defiance


Год выпуска: 2015
Страна: США
Жанр: Фантастика, боевик, драма
Продолжительность: ~ 00:43:00
Перевод: Профессиональный (многоголосый закадровый) LostFilm
Режиссёр: Майкл Нанкин / Michael Nankin

В ролях: Грант Боулер, Джули Бенц, Дьюшэйн Уильямс, Тони Карран, Тренна Китинг, Стефани Леонидас, Джейми Мюррэй, Николь Муньос, Джессика Николс, Джастин Рэйн

Описание: Сюжет сериала "Вызов" рассказывает о Земле, какой она стала после Бледных войн: противостояния землян и прилетевших "на поселение" инопланетян, чья система бинарных солнц превратилась в сверхновую. После того, как потери с обеих сторон достигли ужасных размеров и на Землю по ошибке попали терраформирующие машины инопланетян, горстка солдат осознала бессмысленность взаимного истребления и бросает вызов своим командирам. Цепная реакция привела к перемирию между землянами и вотанцами. В начале сериала со времен объявления перемирия прошло 15 лет. Бывший солдат Джозеф Нолан со своей приемной дочкой-инопланетянкой Айриссой попадает в некогда родной Сент-Луис, и вынужденно становится защитником местных жителей на посту шерифа. Ему предстоит жить в городе, ныне носящем гордое название Вызов, населенном представителями 6 рас, и бороться с силами, пытающимися стереть его с лица Земли.



Качество: WEB-DLRip
Формат: AVI
Видео: XviD, 720x400 (16:9), 23.976 fps, ~ 2000 kbps , 0.290 bit/pixel
Аудио rus: AC-3, 48 KHz, 6 ch, 384 kbps | LostFilm
Аудио eng: AC-3, 48 KHz, 6 ch, 384 kbps | original
Субтитры: русские (antoniolagrande), английские

АНОНСЫ ПОПУЛЯРНЫХ РАЗДАЧ
Монтаж, работа со звуком: Skyns61
Дорожка получена наложением выделенных голосов от «LostFilm» на центр оригинального AC3.
Субтитры: antoniolagrande

01. Мир, который мы захватим /The World We Seize
02. Последние единороги /The Last Unicorns
03. Сломанная ветвь /The Broken Bough
04. Тишина в эфире /Dead Air
05. История рифмуется /History Rhymes
06. Куда покатились яблоки /Where the Apples Fell
07. Красота нашего оружия /The Beauty of Our Weapons
08. Меня зовут Датак Тарр и я пришёл убить вас /My Name Is Datak Tarr and I Have Come to Kill You
09. Остинато в белом /Ostinato in White
10. Когда небо погаснет в сумерках /When Twilight Dims the Sky Above
11. В демона преображаясь /Of a Demon in My View
12. Пробуждение /The Awakening
13. Смерть застигнет нас в походе /Upon the March We Fittest Die
Общее
Полное имя : G:\Films\Defiance.S03.WEB-DLRip.LostFilm\Defiance.S03E01-02.WEB-DLRip.LostFilm.DD5.1.avi
Формат : AVI
Формат/Информация : Audio Video Interleave
Размер файла : 1,62 Гбайт
Продолжительность : 1 ч. 23 м.
Общий поток : 2782 Кбит/сек
Программа кодирования : VirtualDubMod 1.5.10.3 (build 2550/release)
Библиотека кодирования : VirtualDubMod build 2550/release
Видео
Идентификатор : 0
Формат : MPEG-4 Visual
Профиль формата : Advanced Simple@L5
Параметр BVOP формата : 1
Параметр QPel формата : Нет
Параметр GMC формата : Без точки перехода
Параметр матрицы формата : Default (MPEG)
Идентификатор кодека : XVID
Идентификатор кодека/Подсказка : XviD
Продолжительность : 1 ч. 23 м.
Битрейт : 2000 Кбит/сек
Ширина : 720 пикселей
Высота : 400 пикселей
Соотношение сторон : 16:9
Частота кадров : 23,976 кадра/сек
Цветовое пространство : YUV
Субдискретизация насыщенности : 4:2:0
Битовая глубина : 8 бит
Тип развёртки : Прогрессивная
Метод сжатия : С потерями
Бит/(Пиксели*Кадры) : 0.290
Размер потока : 1,16 Гбайт (72%)
Библиотека кодирования : XviD 64
Аудио #1
Идентификатор : 1
Формат : AC-3
Формат/Информация : Audio Coding 3
Расширение режима : CM (complete main)
Параметр Endianness формата : Big
Идентификатор кодека : 2000
Продолжительность : 1 ч. 23 м.
Вид битрейта : Постоянный
Битрейт : 384 Кбит/сек
Каналы : 6 каналов
Расположение каналов : Front: L C R, Side: L R, LFE
Частота : 48,0 КГц
Битовая глубина : 16 бит
Метод сжатия : С потерями
Размер потока : 228 Мбайт (14%)
Выравнивание : Разделение по промежуткам
Продолжительность промежутка : 42 мс. (1,00 видеокадр)
Время предзагрузки промежутка : 500 мс.
Аудио #2
Идентификатор : 2
Формат : AC-3
Формат/Информация : Audio Coding 3
Расширение режима : CM (complete main)
Параметр Endianness формата : Big
Идентификатор кодека : 2000
Продолжительность : 1 ч. 23 м.
Вид битрейта : Постоянный
Битрейт : 384 Кбит/сек
Каналы : 6 каналов
Расположение каналов : Front: L C R, Side: L R, LFE
Частота : 48,0 КГц
Битовая глубина : 16 бит
Метод сжатия : С потерями
Размер потока : 228 Мбайт (14%)
Выравнивание : Разделение по промежуткам
Продолжительность промежутка : 42 мс. (1,00 видеокадр)
Время предзагрузки промежутка : 500 мс.



Скачать Непокорная.Земля.Вызов.Defiance.(Сезон.03).(Майкл.Нанкин).[2015.фантастика.боевик.драма.WEB-DLRip].MVO.(LostFilm).+.Original.+.Subs.(Rus.Eng).torrent без регистрации
Золото ЗОЛОТАЯ РАЗДАЧА! СКАЧАННОЕ НЕ ЗАСЧИТЫВАЕТСЯ! Золото
Дата: Зарегистрирован   [ Тип: внутренний ] Как тут cкачать?
MAGNET ссылка
MAGNET ссылка


Скачать .torrent

30 KB

Статус: проверено DHT
Скачан: торрент - 118 раз, раздача полностью - 38 раз
Размер: 10,64 GB
Оценка:  4,5 (Голосов: 2)
Поблагодарили: 2
Поделиться ссылкой на эту раздачу с друзьями:
В контактеFacebookОдноклассникиTwitterLivejournalМой МирLiveinternet
 

 
Показать сообщения:    


Вы не можете начинать темы
Вы не можете отвечать на сообщения
Вы не можете редактировать свои сообщения
Вы не можете удалять свои сообщения
Вы не можете голосовать в опросах
Вы не можете прикреплять файлы к сообщениям
Вы можете скачивать файлы