Loading...
Error

Скачать Официант / Garcon! (Клод Соте / Claude Sautet) [1983, Драма, мелодрама, комедия, HDRip] торрент без регистрации

 
Статистика раздачи
Размер:  745 MB   |    Скачан:  79 раз

Полного источника не было: 1 год

 
Автор Сообщение

Шкипер

[] 


Официант / Garcon!


Год выпуска: 1983
Выпущено: Франция (Renn Productions, Sara Films)
Жанр: Драма, мелодрама, комедия
Продолжительность: 01:31:37
Перевод: Профессиональный (многоголосый)
Субтитры: Отсутствует

Режиссер: Клод Соте / Claude Sautet

В ролях: Ив Монтан, Николь Гарсия, Жак Вильре, Рози Варт, Доминик Лаффен, Мари Дюбуа, Бернар Фрессон, Анник Алан, Марианн Комтелл, Дженни Астрюк

Описание: Алекс недавно ушел от жены с пустыми руками, но это не сломило его. Он работает официантом, пытается найти средства на создание парка развлечений, и пользуется большой популярностью у женщин. Когда в его жизни появляется новая возлюбленная, у Алекса возникает мощный стимул показать, на что он способен…





Качество: HDRip
Формат: AVI
Видео кодек: XviD
Аудио кодек: MP3
Видео: 624x352 (1.77:1), 23.976 fps, XviD build 73 ~1000 kbps avg, 0.19 bit/pixel
Аудио: 48 kHz, MPEG Layer 3, 2 ch, ~128.00 kbps avg

General
Complete name : D:Для изготовления рипаOficiant.1983.HDRip by shkiper.avi
Format : AVI
Format/Info : Audio Video Interleave
File size : 745 MiB
Duration : 1h 31mn
Overall bit rate : 1 137 Kbps
Writing application : VirtualDubMod 1.5.10.3 | www.virtualdub-fr.org || (build 2550/release)
Writing library : VirtualDubMod build 2550/release

Video
ID : 0
Format : MPEG-4 Visual
Format profile : Advanced Simple@L5
Format settings, BVOP : 1
Format settings, QPel : No
Format settings, GMC : No warppoints
Format settings, Matrix : Custom
Codec ID : XVID
Codec ID/Hint : XviD
Duration : 1h 31mn
Bit rate : 1 000 Kbps
Width : 624 pixels
Height : 352 pixels
Display aspect ratio : 16:9
Frame rate : 23.976 fps
Color space : YUV
Chroma subsampling : 4:2:0
Bit depth : 8 bits
Scan type : Progressive
Compression mode : Lossy
Bits/(Pixel*Frame) : 0.190
Stream size : 655 MiB (88%)
Writing library : XviD 73

Audio
ID : 1
Format : MPEG Audio
Format version : Version 1
Format profile : Layer 3
Mode : Joint stereo
Mode extension : MS Stereo
Codec ID : 55
Codec ID/Hint : MP3
Duration : 1h 31mn
Bit rate mode : Constant
Bit rate : 128 Kbps
Channel(s) : 2 channels
Sampling rate : 48.0 KHz
Compression mode : Lossy
Stream size : 83.9 MiB (11%)
Alignment : Aligned on interleaves
Interleave, duration : 42 ms (1.00 video frame)
Interleave, preload duration : 504 ms
Writing library : LAME3.99r
Encoding settings : -m j -V 4 -q 2 -lowpass 17 -b 128





Скачать Официант.Garcon!.(Клод.Соте.Claude.Sautet).[1983.Драма.мелодрама.комедия.HDRip].torrent без регистрации
Золото ЗОЛОТАЯ РАЗДАЧА! СКАЧАННОЕ НЕ ЗАСЧИТЫВАЕТСЯ! Золото
Дата: Зарегистрирован   [ Тип: внутренний ] Как тут cкачать?
MAGNET ссылка
MAGNET ссылка


Скачать .torrent

15 KB

Статус: проверено
Скачан: торрент - 79 раз, раздача полностью - 1 раз
Размер: 745 MB
Оценка:  2 (Голосов: 1)
Поблагодарили: 1
Поделиться ссылкой на эту раздачу с друзьями:
В контактеFacebookОдноклассникиTwitterLivejournalМой МирLiveinternet
 

 
Показать сообщения:    


Вы не можете начинать темы
Вы не можете отвечать на сообщения
Вы не можете редактировать свои сообщения
Вы не можете удалять свои сообщения
Вы не можете голосовать в опросах
Вы не можете прикреплять файлы к сообщениям
Вы можете скачивать файлы