Loading...
Error

Скачать Призраки бывших подружек / Ghosts of Girlfriends Past (Марк Уотерс) [2009, комедия, мелодрама, BDRip-AVC] [Dub]x2+[DVO]+[Sub]x2 торрент без регистрации

 
Статистика раздачи
Размер:  2,04 GB   |    Скачан:  156 раз
Сидов:  1  [  0 KB/s  ]  
 
Автор Сообщение

Marsianka

[] 

Призраки бывших подружек
| Ghosts of Girlfriends Past |

Информация о фильме
Название: Призраки бывших подружек
Оригинальное название: Ghosts of Girlfriends Past
Год выхода: 2009
Жанр: комедия, мелодрама
Режиссер: Марк Уотерс
В ролях: Мэттью МакКонахи, Дженнифер Гарнер, Майкл Дуглас, Эмма Стоун, Брекин Мейер, Лэйси Чэберт, Роберт Форстер, Энн Арчер, Дэниэл Санжата, Норин ДеВулф, Эмили Фокслер

О фильме:
Коннор Мид – ловелас, который может бросить трех подружек. Одновременно. По конференц-связи. Поэтому когда он попадает на свадьбу своего брата, его единственная цель – соблазнить подружку невесты, которая до сих пор еще не попалась в его сети. Но у призрака его покойного дядюшки Уэйна – того самого, кто научил его влюблять в себя женщин и бросать их – на уме совсем другое. Он хочет возродить веру Коннора в настоящую любовь, а это действительно непростая задача, для решения которой ему потребуется помощь призраков бывших подружек.



Страна: США
Студия: New Line Cinema, Panther
Продолжительность: 01:40:38
Перевод: Дублированный, профессиональный двухголосый

Файл
Кодек: h.264
Качество: BDRip-AVC
Видео: 1947 Кбит/с, 1024x426, 23.976 кадр/с

• №1: Русский (АС3, 6 ch, 384 Кбит/с) Дублированный [Мосфильм-Мастер]
• №2: Русский (АС3, 2 ch, 192 Кбит/с) Профессиональный двухголосый [чистый звук]
• №3: Английский (АС3, 6 ch, 384 Кбит/с)
• №4: Украинский (АС3, 6 ch, 384 Кбит/с) Дублированный [DVD, "CineType" по заказу Киномании]

Субтитры: Русские [форсированные и полные], английские [для слабослышащих]

----------------------------------------------------------------------
x264 [info]: frame I:1209 Avg QP:16.00 size: 61671
x264 [info]: frame P:30335 Avg QP:19.16 size: 20192
x264 [info]: frame B:113225 Avg QP:21.47 size: 6878
----------------------------------------------------------------------

Полное имя : Ghosts.of.Girlfriends.Past.2009.x264.BDRip-AVC.0ptimus.mkv
Формат : Matroska
Версия формата : Version 2
Размер файла : 2,04 Гбайт
Продолжительность : 1 ч. 40 м.
Общий поток : 2904 Кбит/сек
Название фильма : Призраки бывших подружек | Ghosts of Girlfriends Past [2009] -= BDRip (AVC) by 0ptimus =-
Дата кодирования : UTC 2015-09-03 11:25:05
Программа кодирования : mkvmerge v6.6.0 ('The Edge Of The In Between') built on Dec 1 2013 17:55:00
Библиотека кодирования : libebml v1.3.0 + libmatroska v1.4.1

Видео
Идентификатор : 1
Формат : AVC
Формат/Информация : Advanced Video Codec
Профиль формата : High@L4.1
Параметр CABAC формата : Да
Параметр ReFrames формата : 9 кадров
Идентификатор кодека : V_MPEG4/ISO/AVC
Продолжительность : 1 ч. 40 м.
Битрейт : 1947 Кбит/сек
Ширина : 1024 пикселя
Высота : 426 пикселей
Соотношение сторон : 2,40:1
Режим частоты кадров : Постоянный
Частота кадров : 23,976 кадра/сек
Цветовое пространство : YUV
Субдискретизация насыщенности : 4:2:0
Битовая глубина : 8 бит
Тип развёртки : Прогрессивная
Бит/(Пиксели*Кадры) : 0.186
Размер потока : 1,33 Гбайт (65%)
Заголовок : Rip by 0ptimus
Библиотека кодирования : x264 core 133 r2334 a3ac64b
Настройки программы : cabac=1 / ref=9 / deblock=1:-3:-3 / analyse=0x3:0x113 / me=umh / subme=11 / psy=1 / psy_rd=1.00:0.20 / mixed_ref=1 / me_range=32 / chroma_me=1 / trellis=2 / 8x8dct=1 / cqm=0 / deadzone=21,11 / fast_pskip=0 / chroma_qp_offset=-3 / threads=3 / lookahead_threads=1 / sliced_threads=0 / nr=0 / decimate=0 / interlaced=0 / bluray_compat=0 / constrained_intra=0 / bframes=13 / b_pyramid=2 / b_adapt=2 / b_bias=0 / direct=3 / weightb=1 / open_gop=0 / weightp=2 / keyint=240 / keyint_min=23 / scenecut=40 / intra_refresh=0 / rc_lookahead=40 / rc=2pass / mbtree=0 / bitrate=1947 / ratetol=1.0 / qcomp=0.60 / qpmin=0 / qpmax=69 / qpstep=4 / cplxblur=20.0 / qblur=0.5 / vbv_maxrate=50000 / vbv_bufsize=50000 / nal_hrd=none / ip_ratio=1.40 / pb_ratio=1.30 / aq=1:1.00
Язык : English
Default : Да
Forced : Да

Аудио #1
Идентификатор : 2
Формат : AC-3
Формат/Информация : Audio Coding 3
Расширение режима : CM (complete main)
Параметр Endianness формата : Big
Идентификатор кодека : A_AC3
Продолжительность : 1 ч. 40 м.
Вид битрейта : Постоянный
Битрейт : 384 Кбит/сек
Каналы : 6 каналов
Расположение каналов : Front: L C R, Side: L R, LFE
Частота : 48,0 КГц
Битовая глубина : 16 бит
Метод сжатия : С потерями
Размер потока : 277 Мбайт (13%)
Заголовок : Дублированный AC3 5.1 @ 384 kbps
Язык : Russian
Default : Да
Forced : Да

Аудио #2
Идентификатор : 3
Формат : AC-3
Формат/Информация : Audio Coding 3
Расширение режима : CM (complete main)
Параметр Endianness формата : Big
Идентификатор кодека : A_AC3
Продолжительность : 1 ч. 40 м.
Вид битрейта : Постоянный
Битрейт : 192 Кбит/сек
Каналы : 2 канала
Расположение каналов : Front: L R
Частота : 48,0 КГц
Битовая глубина : 16 бит
Метод сжатия : С потерями
Размер потока : 138 Мбайт (7%)
Заголовок : Двухголосый [Чистый звук] AC3 2.0 @ 192 kbps
Язык : Russian
Default : Нет
Forced : Нет

Аудио #3
Идентификатор : 4
Формат : AC-3
Формат/Информация : Audio Coding 3
Расширение режима : CM (complete main)
Параметр Endianness формата : Big
Идентификатор кодека : A_AC3
Продолжительность : 1 ч. 40 м.
Вид битрейта : Постоянный
Битрейт : 384 Кбит/сек
Каналы : 6 каналов
Расположение каналов : Front: L C R, Side: L R, LFE
Частота : 48,0 КГц
Битовая глубина : 16 бит
Метод сжатия : С потерями
Размер потока : 277 Мбайт (13%)
Заголовок : AC3 5.1 @ 384 kbps
Язык : English
Default : Нет
Forced : Нет

Текст #1
Идентификатор : 5
Формат : UTF-8
Идентификатор кодека : S_TEXT/UTF8
Идентификатор кодека/Информация : UTF-8 Plain Text
Заголовок : Форсированные [надписи]
Язык : Russian
Default : Да
Forced : Да

Текст #2
Идентификатор : 6
Формат : UTF-8
Идентификатор кодека : S_TEXT/UTF8
Идентификатор кодека/Информация : UTF-8 Plain Text
Язык : Russian
Default : Нет
Forced : Нет

Текст #3
Идентификатор : 7
Формат : UTF-8
Идентификатор кодека : S_TEXT/UTF8
Идентификатор кодека/Информация : UTF-8 Plain Text
Заголовок : SDH
Язык : English
Default : Нет
Forced : Нет

Меню
00:00:00.000 : en:Booked Solid Credits
00:03:10.648 : en:Bulk Breakup
00:06:08.618 : en:His Best Breakup
00:11:16.967 : en:All the Old Tricks
00:13:22.801 : en:Not the Best Toast
00:17:59.286 : en:Uncle Wayne
00:20:40.822 : en:Mother of the Bride
00:23:44.548 : en:How It's Done
00:27:41.534 : en:Really Allison
00:29:39.694 : en:First Relationship
00:32:39.082 : en:Neither First Nor Last
00:37:10.519 : en:Becoming Like a Son
00:42:08.484 : en:Totally Cheesy Now
00:47:41.233 : en:Romantic Montage
00:50:27.941 : en:What He Does Best
00:53:29.748 : en:Nightmare Takes the Cake
00:59:18.721 : en:No Dirtbags
01:02:25.658 : en:Tender to Twisted
01:06:59.265 : en:All the Lady Tears
01:11:32.746 : en:Disinvited
01:14:07.234 : en:Future Shock
01:17:44.576 : en:Party's Over
01:20:36.206 : en:Nuptial Intervention
01:26:07.662 : en:From This Day On
01:29:56.474 : en:Just You and Me
01:34:46.013 : en:End Credits
Релиз от:



Скачать Призраки.бывших.подружек.Ghosts.of.Girlfriends.Past.(Марк.Уотерс).[2009.комедия.мелодрама.BDRip-AVC].[Dub]x2+[DVO]+[Sub]x2.torrent без регистрации
Золото ЗОЛОТАЯ РАЗДАЧА! СКАЧАННОЕ НЕ ЗАСЧИТЫВАЕТСЯ! Золото
Дата: Зарегистрирован   [ Тип: внутренний ] Как тут cкачать?
MAGNET ссылка
MAGNET ссылка


Скачать .torrent

21 KB

Статус: проверено DHT
Скачан: торрент - 156 раз, раздача полностью - 14 раз
Размер: 2,04 GB
Оценка:  - (Голосов: 0)
Поблагодарили: 2
Поделиться ссылкой на эту раздачу с друзьями:
В контактеFacebookОдноклассникиTwitterLivejournalМой МирLiveinternet
 

 
Показать сообщения:    


Вы не можете начинать темы
Вы не можете отвечать на сообщения
Вы не можете редактировать свои сообщения
Вы не можете удалять свои сообщения
Вы не можете голосовать в опросах
Вы не можете прикреплять файлы к сообщениям
Вы можете скачивать файлы