Loading...
Error

Скачать Мушкетеры / The Musketeers (сезоны 01-02) (Тоби Хэйнс и др.) [2014-2015, драма, приключения, костюмированный, WEB-DLRip, HDTVRip] [MVO (NewStudio)] торрент без регистрации

 
Статистика раздачи
Размер:  15,67 GB   |    Скачан:  98 раз

Полного источника не было: 25 минут

 
Автор Сообщение

МихаНЕзатор

[] 

Информация о фильме
Название: Мушкетеры
Оригинальное название: The Musketeers
Год выхода: 2014
Жанр: Драма, приключения, костюмированный
Режиссер: Тоби Хэйнс, Фэррен Блэкберн, Ричард Кларк

В ролях: Люк Паскуалино, Том Бёрк, Ховард Чарльз, Сантьяго Кабрера, Александра Доулинг, Питер Капальди, Райан Гейдж, Мэйми МакКой, Хьюго Спир, Шарлотта Хоуп, Джулиан Бастида, Эмили Бичем, Филип Броди, Кевин Кларк, Джей Джей Филд, Тамла Кари, Эбигейл Райс, Джеймс Кэллис, Шон Сернов, Фиона Глэскотт, Джим Хай, Энтон Лессер, Саймон Микок, Стюарт Мур, Анна Скеллерн, Эшли Уолтерс, Власта Сваткова

О фильме: Мушкетеры собираются на улицах Парижа в семнадцатом веке, где закон и порядок являются больше идеей, чем реальностью. Личные телохранители короля Людовика XIII, Атос, Арамис и Портос решительно стоят за социальную справедливость, за честь, за доблесть, так же за любовь — и за острые ощущения.

Релиз от:

Страна: Великобритания
Студия: BBC One, BBC America
Продолжительность: 20 х ~00:57:00
Перевод: Профессиональный (многоголосый, закадровый) [NewStudio]

Файл
Формат: AVI
Качество: WEB-DLRip, HDTVRip
Видео: XviD, 720x400, ~1804 kbps, 25.000 fps
Звук: AC3, 48.0 KHz, 2 ch, 192 Kbps
Субтитры: Нет

HDTVRip - Видеоряд чистый, без рекламы и логотипа телеканала.

АНОНСЫ ПОПУЛЯРНЫХ РАЗДАЧ
General
Complete name : E:KinoMushketjory.XviD.GeneralfilmMushketjory.S01.2014.XviD.WEB-DLRip.GeneralfilmMushketjory.s01e01.2014.XviD.WEB-DLRip.Generalfilm.avi
Format : AVI
Format/Info : Audio Video Interleave
File size : 847 MiB
Duration : 59mn 1s
Overall bit rate : 2 005 Kbps
Writing application : VirtualDubMod 1.5.10.3 | www.virtualdub-fr.org || (build 2550/release)
Writing library : VirtualDubMod build 2550/release

Video
ID : 0
Format : MPEG-4 Visual
Format profile : Advanced Simple@L5
Format settings, BVOP : 2
Format settings, QPel : No
Format settings, GMC : No warppoints
Format settings, Matrix : Default (H.263)
Codec ID : XVID
Codec ID/Hint : XviD
Duration : 59mn 1s
Bit rate : 1 804 Kbps
Width : 720 pixels
Height : 400 pixels
Display aspect ratio : 16:9
Frame rate : 25.000 fps
Color space : YUV
Chroma subsampling : 4:2:0
Bit depth : 8 bits
Scan type : Progressive
Compression mode : Lossy
Bits/(Pixel*Frame) : 0.251
Stream size : 761 MiB (90%)
Writing library : XviD 1.2.1 (UTC 2008-12-04)

Audio
ID : 1
Format : AC-3
Format/Info : Audio Coding 3
Mode extension : CM (complete main)
Format settings, Endianness : Big
Codec ID : 2000
Duration : 59mn 1s
Bit rate mode : Constant
Bit rate : 192 Kbps
Channel count : 2 channels
Channel positions : Front: L R
Sampling rate : 48.0 KHz
Bit depth : 16 bits
Compression mode : Lossy
Stream size : 81.1 MiB (10%)
Alignment : Split accross interleaves
Interleave, duration : 40 ms (1.00 video frame)
Interleave, preload duration : 500 ms



Скачать Мушкетеры.The.Musketeers.(сезоны.01-02).(Тоби.Хэйнс.и.др.).[2014-2015.драма.приключения.костюмированный.WEB-DLRip.HDTVRip].[MVO.(NewStudio)].torrent без регистрации
Золото ЗОЛОТАЯ РАЗДАЧА! СКАЧАННОЕ НЕ ЗАСЧИТЫВАЕТСЯ! Золото
Дата: Зарегистрирован   [ Тип: внутренний ] Как тут cкачать?
MAGNET ссылка
MAGNET ссылка


Скачать .torrent

43 KB

Статус: проверено DHT
Скачан: торрент - 98 раз, раздача полностью - 55 раз
Размер: 15,67 GB
Оценка:  - (Голосов: 0)
Поблагодарили: 2
Поделиться ссылкой на эту раздачу с друзьями:
В контактеFacebookОдноклассникиTwitterLivejournalМой МирLiveinternet
 

 
Показать сообщения:    


Вы не можете начинать темы
Вы не можете отвечать на сообщения
Вы не можете редактировать свои сообщения
Вы не можете удалять свои сообщения
Вы не можете голосовать в опросах
Вы не можете прикреплять файлы к сообщениям
Вы можете скачивать файлы