Loading...
Error

Скачать Грязная любовь / Dirty Love (Джон Мэллори Ашер) [2005, комедия, мелодрама, WEB-DLRip-AVC] [DVO] торрент без регистрации

 
Статистика раздачи
Размер:  1,45 GB   |    Скачан:  86 раз
Сидов:  1  [  0 KB/s  ]  
 
Автор Сообщение

МихаНЕзатор

[] 

Грязная любовь / Dirty Love
(2005) WEB-DLRip-AVC

Производство: США, Big Screen Entertainment Group, DEJ Productions, Double Down Entertainment, Palisades Pictures
Жанр: комедия, мелодрама
Режиссер: Джон Мэллори Ашер

Актеры: Дженни МакКарти, Эдди Кэй Томас, Кармен Электра, Виктор Уэбстер, Кэм Хескин, Гильермо Диаз, Джессика Коллинз, Рени Альберт

Описание: Брошенная и обманутая своим парнем, Ребекка, бросается на поиски приключений, горя желанием затащить в свою постель как можно большее количество мужчин… Но все оказывается не так просто. Возможно, ради счастья необязательно прыгать по чужим постелям?

Релиз от: FAGOT100 (NNM-CLUB)

Продолжительность: 01:30:38
Перевод: Профессиональный (двухголосый, закадровый)
Субтитры: отсутствуют

Качество видео: WEB-DLRip-AVC
Видео: AVC, 960x536 (16:9), 23.976 fps, 1 854 Kbps (0.150 bit/pixel)
Аудио: AC-3, 48.0 KHz, 6 ch, 448 Kbps, CBR (Russian)

АНОНСЫ ПОПУЛЯРНЫХ РАЗДАЧ

Формат : Matroska
Версия формата : Version 2
Размер файла : 1,45 Гбайт
Продолжительность : 1 ч. 30 м.
Общий поток : 2283 Кбит/сек
Название фильма : Dirty.Love.2005.720p.WEB-DL.DD5.1.H264-FGT
Дата кодирования : UTC 2015-09-04 00:56:46
Программа кодирования : mkvmerge v5.3.0 ('I could have danced') built on Feb 9 2012 10:38:07
Библиотека кодирования : libebml v1.2.3 + libmatroska v1.3.0
Attachment : Yes

Видео
Идентификатор : 1
Формат : AVC
Формат/Информация : Advanced Video Codec
Профиль формата : High@L4.1
Параметр CABAC формата : Да
Параметр ReFrames формата : 9 кадров
Идентификатор кодека : V_MPEG4/ISO/AVC
Продолжительность : 1 ч. 30 м.
Битрейт : 1854 Кбит/сек
Ширина : 960 пикселей
Высота : 536 пикселей
Соотношение сторон : 16:9
Режим частоты кадров : Постоянный
Частота кадров : 23,976 кадра/сек
Цветовое пространство : YUV
Субдискретизация насыщенности : 4:2:0
Битовая глубина : 8 бит
Тип развёртки : Прогрессивная
Бит/(Пиксели*Кадры) : 0.150
Размер потока : 1,13 Гбайт (78%)
Библиотека кодирования : x264 core 146 r2538 121396c
Настройки программы : cabac=1 / ref=9 / deblock=1:-3:-2 / analyse=0x3:0x133 / me=umh / subme=10 / psy=1 / psy_rd=1.00:0.00 / mixed_ref=1 / me_range=32 / chroma_me=1 / trellis=2 / 8x8dct=1 / cqm=0 / deadzone=21,11 / fast_pskip=0 / chroma_qp_offset=-2 / threads=12 / lookahead_threads=1 / sliced_threads=0 / nr=0 / decimate=0 / interlaced=0 / bluray_compat=0 / constrained_intra=0 / bframes=6 / b_pyramid=2 / b_adapt=2 / b_bias=0 / direct=3 / weightb=1 / open_gop=0 / weightp=2 / keyint=240 / keyint_min=23 / scenecut=40 / intra_refresh=0 / rc=2pass / mbtree=0 / bitrate=1854 / ratetol=1.0 / qcomp=0.60 / qpmin=0 / qpmax=69 / qpstep=4 / cplxblur=20.0 / qblur=0.5 / ip_ratio=1.40 / pb_ratio=1.30 / aq=1:1.00
Язык : English
Default : Да
Forced : Нет

Аудио
Идентификатор : 2
Формат : AC-3
Формат/Информация : Audio Coding 3
Расширение режима : CM (complete main)
Параметр Endianness формата : Big
Идентификатор кодека : A_AC3
Продолжительность : 1 ч. 30 м.
Вид битрейта : Постоянный
Битрейт : 448 Кбит/сек
Каналы : 6 каналов
Расположение каналов : Front: L C R, Side: L R, LFE
Частота : 48,0 КГц
Битовая глубина : 16 бит
Метод сжатия : С потерями
Задержка видео : 1 с. 0 мс.
Размер потока : 290 Мбайт (20%)
Язык : Russian
Default : Да
Forced : Нет

Меню
00:00:00.000 : en:Opening Credits
00:07:06.000 : en:Shopping
00:15:07.000 : en:Audition
00:24:11.000 : en:Ice Cream
00:32:05.000 : en:Smells Like Fish
00:40:30.000 : en:The Gym
00:47:58.000 : en:Dinner Magic
00:56:52.000 : en:Police Department
01:05:23.000 : en:Designated Driver
01:13:45.000 : en:Last Draw
01:19:05.000 : en:Surprise Visit
01:25:52.000 : en:Ending Credits



Скачать Грязная.любовь.Dirty.Love.(Джон.Мэллори.Ашер).[2005.комедия.мелодрама.WEB-DLRip-AVC].[DVO].torrent без регистрации
Золото ЗОЛОТАЯ РАЗДАЧА! СКАЧАННОЕ НЕ ЗАСЧИТЫВАЕТСЯ! Золото
Дата: Зарегистрирован   [ Тип: внутренний ] Как тут cкачать?
MAGNET ссылка
MAGNET ссылка


Скачать .torrent

15 KB

Статус: проверено DHT
Скачан: торрент - 86 раз, раздача полностью - 10 раз
Размер: 1,45 GB
Оценка:  - (Голосов: 0)
Поблагодарили: 1
Поделиться ссылкой на эту раздачу с друзьями:
В контактеFacebookОдноклассникиTwitterLivejournalМой МирLiveinternet
 

 
Показать сообщения:    


Вы не можете начинать темы
Вы не можете отвечать на сообщения
Вы не можете редактировать свои сообщения
Вы не можете удалять свои сообщения
Вы не можете голосовать в опросах
Вы не можете прикреплять файлы к сообщениям
Вы можете скачивать файлы