Loading...
Error

Скачать Совет и согласие / Advise & Consent (Отто Преминджер) [1962, драма, DVDRip] [AVO (Сергей Кузнецов)]+[Оригинал] торрент без регистрации

 
Статистика раздачи
Размер:  1,64 GB   |    Скачан:  65 раз
Сидов:  1  [  0 KB/s  ]  
 
Автор Сообщение

Marsianka

[] 

Информация о фильме
Название: название на русском языке
Оригинальное название: название на языке оригинала
Год выхода: 1962
Жанр: драма
Режиссер: Отто Преминджер
В ролях: Франшо Тоун, Лью Эйрз, Генри Фонда, Уолтер Пиджон, Чарльз Лотон, Дон Мюррэй, Питер Лоуфорд, Джин Тирни, Бёрджесс Мередит, Эдди Ходжес

О фильме: Роберт Леффингуэлл кандидат на пост государственного секретаря. В Сенате по его персоне нет единодушия. Сторонники Леффингуэлла пытаются протолкнуть назначение, но и среди них нет согласия - молодой сенатор Брингэм Андерсон, чей голос чрезвычайно важен, не хочет поддержать лидера своей партии. Это приводит к тому, что сенатор Фред ван Аккерман, беспощадный, рвущийся к власти коллега, начинает шантажировать Андерсона. Он находит доказательства гомосексуализма Андерсона и угрожает их обнародовать в прессе, если тот не проголосует «правильно». Это неожиданно приводит к самым трагическим последствиям…



Выпущено: США
Продолжительность: 02:17:58
Перевод: Авторский (одноголосый закадровый) - Сергей Кузнецов

Файл
Кодек: XviD
Качество: DVDRip
Видео: 720x304 (2.37:1), 23.976 fps, XviD build 73 ~1311 kbps avg, 0.25 bit/pixel
Аудио 1: 48 kHz, AC3 Dolby Digital, 2/0 (L,R) ch, ~192 kbps - авторский
Аудио 2: 48 kHz, AC3 Dolby Digital, 2/0 (L,R) ch, ~192 kbps - оригинал (отдельным файлом)
Скачать: Сэмпл
Общее
Полное имя : H:Advise.&.Consent.1962.dvdrip_[1.46]_[teko]Advise.&.Consent.1962.dvdrip_[1.46].avi
Формат : AVI
Формат/Информация : Audio Video Interleave
Размер файла : 1,46 Гбайт
Продолжительность : 2 ч. 17 м.
Общий поток : 1513 Кбит/сек
Программа кодирования : VirtualDubMod 1.5.10.3 | www.virtualdub-fr.org || (build 2550/release)
Библиотека кодирования : VirtualDubMod build 2550/release

Видео
Идентификатор : 0
Формат : MPEG-4 Visual
Профиль формата : Advanced Simple@L5
Параметр BVOP формата : 1
Параметр QPel формата : Нет
Параметр GMC формата : Без точки перехода
Параметр матрицы формата : Выборочная
Идентификатор кодека : XVID
Идентификатор кодека/Подсказка : XviD
Продолжительность : 2 ч. 17 м.
Битрейт : 1312 Кбит/сек
Ширина : 720 пикселей
Высота : 304 пикселя
Соотношение сторон : 2,35:1
Частота кадров : 23,976 кадра/сек
Цветовое пространство : YUV
Субдискретизация насыщенности : 4:2:0
Битовая глубина : 8 бит
Тип развёртки : Прогрессивная
Метод сжатия : С потерями
Бит/(Пиксели*Кадры) : 0.250
Размер потока : 1,26 Гбайт (87%)
Библиотека кодирования : XviD 73

Аудио
Идентификатор : 1
Формат : AC-3
Формат/Информация : Audio Coding 3
Расширение режима : CM (complete main)
Параметр Endianness формата : Big
Идентификатор кодека : 2000
Продолжительность : 2 ч. 17 м.
Вид битрейта : Постоянный
Битрейт : 192 Кбит/сек
Каналы : 2 канала
Расположение каналов : Front: L R
Частота : 48,0 КГц
Битовая глубина : 16 бит
Метод сжатия : С потерями
Задержка видео : 700 мс.
Размер потока : 189 Мбайт (13%)
Выравнивание : Разделение по промежуткам
Продолжительность промежутка : 42 мс. (1,00 видеокадр)
Время предзагрузки промежутка : 500 мс.



Скачать Совет.и.согласие.Advise.&.Consent.(Отто.Преминджер).[1962.драма.DVDRip].[AVO.(Сергей.Кузнецов)]+[Оригинал].torrent без регистрации
Золото ЗОЛОТАЯ РАЗДАЧА! СКАЧАННОЕ НЕ ЗАСЧИТЫВАЕТСЯ! Золото
Дата: Зарегистрирован   [ Тип: внутренний ] Как тут cкачать?
MAGNET ссылка
MAGNET ссылка


Скачать .torrent

17 KB

Статус: проверено DHT
Скачан: торрент - 65 раз, раздача полностью - 1 раз
Размер: 1,64 GB
Оценка:  - (Голосов: 0)
Поблагодарили: 0
Поделиться ссылкой на эту раздачу с друзьями:
В контактеFacebookОдноклассникиTwitterLivejournalМой МирLiveinternet
 

 
Показать сообщения:    


Вы не можете начинать темы
Вы не можете отвечать на сообщения
Вы не можете редактировать свои сообщения
Вы не можете удалять свои сообщения
Вы не можете голосовать в опросах
Вы не можете прикреплять файлы к сообщениям
Вы можете скачивать файлы