Loading...
Error

Скачать Электрошок / Shocker (Уэс Крэйвен) [1989 г., ужасы, триллер, комедия, HDRip-AVC] [AVO, MVO] торрент без регистрации

 
Статистика раздачи
Размер:  2,92 GB   |    Скачан:  99 раз

Полного источника не было: 2 дня 4 часа

 
Автор Сообщение

durik

[] 

Электрошок / Shocker

Информация о фильме
Название: Электрошок
Оригинальное название: Shocker
Год выхода: 1989
Жанр: ужасы, триллер, комедия
Режиссер: Уэс Крэйвен
В ролях: Майкл Мерфи, Питер Берг, Митч Пилледжи, Сэм Скарбер, Камилль Купер, Тед Рэйми, Кит Энтони-Любов-Беллами, Хэзер Лэнгенкэмп, Вирджиния Моррис, Джон Тэш

О фильме:
Серийный убийца приговорен к казни на электрическом стуле. Однако он умудряется использовать электрошок, чтобы «воскреснуть» из мертвых. Причем он может выступать как в своем обличии, так и в образе своих жертв. И теперь он жаждет отомстить футболисту, который выдал маньяка-убийцу полиции.



Страна: США
Студия: Alive Films, Carolco Pictures
Продолжительность: 01:49:34
Перевод:
1. Авторский (одноголосый закадровый) - Гаврилов
2. Авторский (одноголосый закадровый) - Горчаков
3. Авторский (одноголосый закадровый) - Живов
4. Авторский (одноголосый закадровый) - Иванов
5. Профессиональный (многоголосый закадровый)

Файл
Кодек: AVC
Качество: HDRip-AVC
Видео: 1064x576, 2529 kbps, 23,976 fps, 0,172 Bits/(Pixel*Frame)
Звук:
1. AC3, 48 kHz, 2 ch, 192 kbps - RUS AVO (Гаврилов)
2. AC3, 48 kHz, 2 ch, 192 kbps - RUS AVO (Горчаков)
3. AC3, 48 kHz, 2 ch, 192 kbps - RUS AVO (Живов)
4. AC3, 48 kHz, 2 ch, 192 kbps - RUS AVO (Иванов)
5. AC3, 48 kHz, 2 ch, 128 kbps - RUS MVO
6. AC3, 48 kHz, 6 ch, 384 kbps - ENG (Original)
Субтитры: Нет
General
Unique ID : 201264356602656575784484739878325875653 (0x976A1AE89CDC7762B18249C0ABB473C5)
Complete name : D:Shocker.1989.RUS.ENG.HDRip-AVC_by_Bathory.mkv
Format : Matroska
Format version : Version 4 / Version 2
File size : 2.92 GiB
Duration : 1h 49mn
Overall bit rate : 3 811 Kbps
Encoded date : UTC 2015-09-05 09:43:23
Writing application : mkvmerge v7.1.0 ('Good Love') 64bit built on Jul 27 2014 13:06:55
Writing library : libebml v1.3.0 + libmatroska v1.4.1
_STATISTICS_WRITING_APP : mkvmerge v7.1.0 ('Good Love') 64bit built on Jul 27 2014 13:06:55
_STATISTICS_WRITING_DATE_UTC : 2015-09-05 09:43:23
_STATISTICS_TAGS : BPS DURATION NUMBER_OF_FRAMES NUMBER_OF_BYTES
DURATION : 01:49:35.040000000
NUMBER_OF_FRAMES : 205470
NUMBER_OF_BYTES : 315601920

Video
ID : 1
Format : AVC
Format/Info : Advanced Video Codec
Format profile : High@L4.1
Format settings, CABAC : Yes
Format settings, ReFrames : 12 frames
Codec ID : V_MPEG4/ISO/AVC
Duration : 1h 49mn
Bit rate : 2 529 Kbps
Width : 1 064 pixels
Height : 576 pixels
Display aspect ratio : 1.85:1
Frame rate mode : Constant
Frame rate : 23.976 fps
Color space : YUV
Chroma subsampling : 4:2:0
Bit depth : 8 bits
Scan type : Progressive
Bits/(Pixel*Frame) : 0.172
Stream size : 1.88 GiB (64%)
Writing library : x264 core 146 r2538 121396c
Encoding settings : cabac=1 / ref=12 / deblock=1:-2:-2 / analyse=0x3:0x133 / me=umh / subme=11 / psy=1 / psy_rd=1.15:0.15 / mixed_ref=1 / me_range=32 / chroma_me=1 / trellis=2 / 8x8dct=1 / cqm=0 / deadzone=21,11 / fast_pskip=0 / chroma_qp_offset=-3 / threads=12 / lookahead_threads=3 / sliced_threads=0 / nr=0 / decimate=1 / interlaced=0 / bluray_compat=0 / constrained_intra=0 / bframes=16 / b_pyramid=2 / b_adapt=2 / b_bias=0 / direct=3 / weightb=1 / open_gop=0 / weightp=2 / keyint=240 / keyint_min=23 / scenecut=40 / intra_refresh=0 / rc_lookahead=60 / rc=2pass / mbtree=1 / bitrate=2529 / ratetol=1.0 / qcomp=0.60 / qpmin=0 / qpmax=69 / qpstep=4 / cplxblur=20.0 / qblur=0.5 / vbv_maxrate=62500 / vbv_bufsize=78125 / nal_hrd=none / filler=0 / ip_ratio=1.40 / aq=1:1.00
Default : Yes
Forced : No

Audio #1
ID : 2
Format : AC-3
Format/Info : Audio Coding 3
Mode extension : CM (complete main)
Format settings, Endianness : Big
Codec ID : A_AC3
Duration : 1h 49mn
Bit rate mode : Constant
Bit rate : 192 Kbps
Channel(s) : 2 channels
Channel positions : Front: L R
Sampling rate : 48.0 KHz
Bit depth : 16 bits
Compression mode : Lossy
Stream size : 150 MiB (5%)
Title : Gavrilov
Language : Russian
Default : Yes
Forced : No

Audio #2
ID : 3
Format : AC-3
Format/Info : Audio Coding 3
Mode extension : CM (complete main)
Format settings, Endianness : Big
Codec ID : A_AC3
Duration : 1h 49mn
Bit rate mode : Constant
Bit rate : 192 Kbps
Channel(s) : 2 channels
Channel positions : Front: L R
Sampling rate : 48.0 KHz
Bit depth : 16 bits
Compression mode : Lossy
Stream size : 150 MiB (5%)
Title : Gorchakov
Language : Russian
Default : No
Forced : No

Audio #3
ID : 4
Format : AC-3
Format/Info : Audio Coding 3
Mode extension : CM (complete main)
Format settings, Endianness : Big
Codec ID : A_AC3
Duration : 1h 49mn
Bit rate mode : Constant
Bit rate : 192 Kbps
Channel(s) : 2 channels
Channel positions : Front: L R
Sampling rate : 48.0 KHz
Bit depth : 16 bits
Compression mode : Lossy
Stream size : 150 MiB (5%)
Title : Zhivov
Language : Russian
Default : No
Forced : No

Audio #4
ID : 5
Format : AC-3
Format/Info : Audio Coding 3
Mode extension : CM (complete main)
Format settings, Endianness : Big
Codec ID : A_AC3
Duration : 1h 49mn
Bit rate mode : Constant
Bit rate : 192 Kbps
Channel(s) : 2 channels
Channel positions : Front: L R
Sampling rate : 48.0 KHz
Bit depth : 16 bits
Compression mode : Lossy
Stream size : 150 MiB (5%)
Title : Ivanov
Language : Russian
Default : No
Forced : No

Audio #5
ID : 6
Format : AC-3
Format/Info : Audio Coding 3
Mode extension : CM (complete main)
Format settings, Endianness : Big
Codec ID : A_AC3
Duration : 1h 49mn
Bit rate mode : Constant
Bit rate : 128 Kbps
Channel(s) : 2 channels
Channel positions : Front: L R
Sampling rate : 48.0 KHz
Bit depth : 16 bits
Compression mode : Lossy
Stream size : 100 MiB (3%)
Title : MVO
Language : Russian
Default : No
Forced : No

Audio #6
ID : 7
Format : AC-3
Format/Info : Audio Coding 3
Mode extension : CM (complete main)
Format settings, Endianness : Big
Codec ID : A_AC3
Duration : 1h 49mn
Bit rate mode : Constant
Bit rate : 384 Kbps
Channel(s) : 6 channels
Channel positions : Front: L C R, Side: L R, LFE
Sampling rate : 48.0 KHz
Bit depth : 16 bits
Compression mode : Lossy
Stream size : 301 MiB (10%)
Title : Original
Language : English
Default : No
Forced : No
Релиз от:

Автор рипа: Bathory



Скачать Электрошок.Shocker.(Уэс.Крэйвен).[1989.г.ужасы.триллер.комедия.HDRip-AVC].[AVO.MVO].torrent без регистрации
Золото ЗОЛОТАЯ РАЗДАЧА! СКАЧАННОЕ НЕ ЗАСЧИТЫВАЕТСЯ! Золото
Дата: Зарегистрирован   [ Тип: внутренний ] Как тут cкачать?
MAGNET ссылка
MAGNET ссылка


Скачать .torrent

15 KB

Статус: * не проверено
Скачан: торрент - 99 раз, раздача полностью - 6 раз
Размер: 2,92 GB
Оценка:  - (Голосов: 0)
Поблагодарили: 0
Поделиться ссылкой на эту раздачу с друзьями:
В контактеFacebookОдноклассникиTwitterLivejournalМой МирLiveinternet
 

 
Показать сообщения:    


Вы не можете начинать темы
Вы не можете отвечать на сообщения
Вы не можете редактировать свои сообщения
Вы не можете удалять свои сообщения
Вы не можете голосовать в опросах
Вы не можете прикреплять файлы к сообщениям
Вы можете скачивать файлы