Loading...
Error

Скачать Попасть в десятку / Starter for 10 (Том Воэн) [2006, мелодрама, комедия, BDRip-AVC] [MVO] торрент без регистрации

 
Статистика раздачи
Размер:  2,17 GB   |    Скачан:  92 раза
Сидов:  5  [  0 KB/s  ]  
 
Автор Сообщение

Marsianka

[] 

Год выпуска: 2006
Страна: Великобритания, США
Жанр: мелодрама, комедия
Продолжительность: 01:36:18
Перевод: Профессиональный (многоголосый, закадровый)
Cубтитры: нет

Режиссер: Том Воэн / Tom Vaughan

В ролях: Джеймс МакЭвой, Ребекка Холл, Элис Ив, Бенедикт Камбербэтч, Доминик Купер, Илэйн Тан, Кэтрин Тейт, Чарльз Дэнс, Линдси Дункан, Джон Хеншоу

Описание: Вырвавшись, наконец, из-под родительского крылышка, Брайан поступает в Бристольский университет. Первое время он самозабвенно вгрызается в гранит науки. Но вскоре бурная молодежная жизнь засасывает Брайана целиком, и он совершенно забывает об учебе. Разбушевавшиеся гормоны парня, разбуженные двумя чертовски обаятельными обстоятельствами Элис и Ребеккой, наносят беспощадный удар учебному процессу и заставляют полностью капитулировать все точные и не очень науки…



Качество видео: BDRip-AVC
Формат видео: MKV

Видео: 1024x576 (16:9), 24.000 fps, AVC, ~2836 kbps avg, 0.200 bit/pixel
Аудио: 48 kHz, AC3 Dolby Digital, 3/2 (L,C,R,l,r) + LFE ch, ~384 kbps

Релиз от:
Попасть в 10Popast'_v_10_2006_AVC_BDRip_[scarabey.org].mkv
Format : Matroska
Format version : Version 2
File size : 2.17 GiB
Duration : 1h 36mn
Overall bit rate : 3 221 Kbps
Encoded date : UTC 2015-08-12 04:17:06
Writing application : mkvmerge v6.1.0 ('Old Devil') built on Mar 4 2013 09:10:42
Writing library : libebml v1.3.0 + libmatroska v1.4.0

Video
ID : 1
Format : AVC
Format/Info : Advanced Video Codec
Format profile : High@L4.1
Format settings, CABAC : Yes
Format settings, ReFrames : 8 frames
Codec ID : V_MPEG4/ISO/AVC
Duration : 1h 36mn
Bit rate : 2 836 Kbps
Width : 1 024 pixels
Height : 576 pixels
Display aspect ratio : 16:9
Frame rate mode : Constant
Frame rate : 24.000 fps
Color space : YUV
Chroma subsampling : 4:2:0
Bit depth : 8 bits
Scan type : Progressive
Bits/(Pixel*Frame) : 0.200
Stream size : 1.87 GiB (86%)
Writing library : x264 core 138 r2356 a1d3d17
Encoding settings : cabac=1 / ref=8 / deblock=1:-3:-2 / analyse=0x3:0x113 / me=umh / subme=10 / psy=1 / psy_rd=1.00:0.05 / mixed_ref=1 / me_range=32 / chroma_me=1 / trellis=2 / 8x8dct=1 / cqm=0 / deadzone=21,11 / fast_pskip=0 / chroma_qp_offset=-3 / threads=12 / lookahead_threads=2 / sliced_threads=0 / nr=0 / decimate=0 / interlaced=0 / bluray_compat=0 / constrained_intra=0 / bframes=8 / b_pyramid=2 / b_adapt=2 / b_bias=0 / direct=3 / weightb=1 / open_gop=0 / weightp=2 / keyint=240 / keyint_min=24 / scenecut=40 / intra_refresh=0 / rc_lookahead=40 / rc=2pass / mbtree=1 / bitrate=2836 / ratetol=1.0 / qcomp=0.60 / qpmin=0 / qpmax=69 / qpstep=4 / cplxblur=20.0 / qblur=0.5 / ip_ratio=1.40 / aq=1:1.00
Default : Yes
Forced : No

Audio
ID : 2
Format : AC-3
Format/Info : Audio Coding 3
Mode extension : CM (complete main)
Format settings, Endianness : Big
Codec ID : A_AC3
Duration : 1h 36mn
Bit rate mode : Constant
Bit rate : 384 Kbps
Channel(s) : 6 channels
Channel positions : Front: L C R, Side: L R, LFE
Sampling rate : 48.0 KHz
Bit depth : 16 bits
Compression mode : Lossy
Stream size : 265 MiB (12%)
Default : Yes
Forced : No



Скачать Попасть.в.десятку.Starter.for.10.(Том.Воэн).[2006.мелодрама.комедия.BDRip-AVC].[MVO].torrent без регистрации
Золото ЗОЛОТАЯ РАЗДАЧА! СКАЧАННОЕ НЕ ЗАСЧИТЫВАЕТСЯ! Золото
Дата: Зарегистрирован   [ Тип: внешний ] Как тут cкачать?
MAGNET ссылка
MAGNET ссылка


Скачать .torrent

12 KB

Статус: проверено DHT
Скачан: торрент - 92 раз, раздача полностью - 1 раз
Размер: 2,17 GB
Оценка:  - (Голосов: 0)
Поблагодарили: 1
Поделиться ссылкой на эту раздачу с друзьями:
В контактеFacebookОдноклассникиTwitterLivejournalМой МирLiveinternet
 

 
Показать сообщения:    


Вы не можете начинать темы
Вы не можете отвечать на сообщения
Вы не можете редактировать свои сообщения
Вы не можете удалять свои сообщения
Вы не можете голосовать в опросах
Вы не можете прикреплять файлы к сообщениям
Вы можете скачивать файлы