Loading...
Error

Скачать Кочевник / Köshpendiler (Сергей Бодров, Иван Пассер, Талгат Теменов) [2005, драма, военный, история, BDRip-AVC] [Dub]+[Sub]x2 торрент без регистрации

 
Статистика раздачи
Размер:  1,45 GB   |    Скачан:  116 раз
Сидов:  1  [  0 KB/s  ]  
 
Автор Сообщение

Marsianka

[] 

Кочевник / Nomad / The warrior (2005) BDRip-AVC

Информация о фильме
Название: Кочевник
Оригинальное название: Nomad / The warrior
Год выхода: 2005
Жанр: драма, военный, история
Режиссер: Сергей Бодров, Иван Пассер, Талгат Теменов

В ролях: Куно Беккер, Джей Эрнандес, Джейсон Скотт Ли, Досхан Жолжаксынов, Аянат Есмагамбетова, Марк Дакаскос, Ашир Чокубаев, Жанас Искаков, Тунгышбай Джаманкулов, Ерик Жолжаксынов, Дильназ Ахмадиева, Асылболат Исмагулов

О фильме: История о казахском народе, о становлении государственного самосознания казахов еще в ХVIII веке.

В основу фильма «Кочевник» легли реальные исторические события, происходившие на казахской земле в 18 веке — освободительная война казахов против джунгарских завоевателей. Героями фильма являются реальные исторические личности: хан Абулхаир, Аблай-хан, мудрый Толе би, предводитель джунгар Голдан Церен.

Центральная фигура фильма — герой Мансур, ставший Аблай ханом, проходит все испытания подлинного народного полководца, но при этом не теряет притягательных личных черт, благодаря удачно выписанной лирической линии его любви к девушке — воину Гаухар.



Страна: Казахстан, Россия, США
Продолжительность: 01:51:23
Перевод: Дублированный

Файл
Кодек: x.264
Качество: BDRip-AVC
Видео: 1024x432 (2,40:1), 23,976 fps, 1417 kbps, 0.134 bit/pixel
Звук: 48 kHz, AC3 Dolby Digital, 6 ch, ~448.00 kbps
Субтитры: Русские, Английские (отключаемые)

&
Общее
Уникальный идентификатор : 172367453344938385583013567404564596251 (0x81ACC3946BD78D86A40F2F5276F4C61B)
Полное имя : D:TorrentNomad.2005.BDRip-AVC.mkv
Формат : Matroska
Версия формата : Version 4 / Version 2
Размер файла : 1,45 Гбайт
Продолжительность : 1 ч. 51 м.
Общий поток : 1865 Кбит/сек
Название фильма : Кочевник / Nomad / The warrior (2005) BDRip-AVC от Rulya74
Дата кодирования : UTC 2013-05-22 03:21:05
Программа кодирования : mkvmerge v6.2.0 ('Promised Land') built on Apr 28 2013 12:22:01
Библиотека кодирования : libebml v1.3.0 + libmatroska v1.4.0

Видео
Идентификатор : 1
Формат : AVC
Формат/Информация : Advanced Video Codec
Профиль формата : High@L4.1
Параметр CABAC формата : Да
Параметр ReFrames формата : 10 кадров
Идентификатор кодека : V_MPEG4/ISO/AVC
Продолжительность : 1 ч. 51 м.
Битрейт : 1417 Кбит/сек
Ширина : 1024 пикселя
Высота : 432 пикселя
Соотношение сторон : 2,40:1
Режим частоты кадров : Постоянный
Частота кадров : 23,976 кадра/сек
Цветовое пространство : YUV
Субдискретизация насыщенности : 4:2:0
Битовая глубина : 8 бит
Тип развёртки : Прогрессивная
Бит/(Пиксели*Кадры) : 0.134
Размер потока : 1,07 Гбайт (74%)
Библиотека кодирования : x264 core 132 r2310 76a5c3a
Настройки программы : cabac=1 / ref=10 / deblock=1:-1:-1 / analyse=0x3:0x113 / me=umh / subme=9 / psy=1 / psy_rd=1.36:0.07 / mixed_ref=1 / me_range=32 / chroma_me=1 / trellis=2 / 8x8dct=1 / cqm=0 / deadzone=21,11 / fast_pskip=0 / chroma_qp_offset=-3 / threads=4 / lookahead_threads=1 / sliced_threads=0 / nr=0 / decimate=0 / interlaced=0 / bluray_compat=0 / constrained_intra=0 / bframes=6 / b_pyramid=2 / b_adapt=2 / b_bias=0 / direct=3 / weightb=1 / open_gop=0 / weightp=0 / keyint=240 / keyint_min=23 / scenecut=40 / intra_refresh=0 / rc_lookahead=40 / rc=2pass / mbtree=0 / bitrate=1417 / ratetol=1.0 / qcomp=0.60 / qpmin=0 / qpmax=69 / qpstep=4 / cplxblur=20.0 / qblur=0.5 / vbv_maxrate=62500 / vbv_bufsize=78125 / nal_hrd=none / ip_ratio=1.40 / pb_ratio=1.30 / aq=2:1.00
Default : Да
Forced : Нет

Аудио
Идентификатор : 2
Формат : AC-3
Формат/Информация : Audio Coding 3
Расширение режима : CM (complete main)
Параметр Endianness формата : Big
Идентификатор кодека : A_AC3
Продолжительность : 1 ч. 51 м.
Вид битрейта : Постоянный
Битрейт : 448 Кбит/сек
Каналы : 6 каналов
Расположение каналов : Front: L C R, Side: L R, LFE
Частота : 48,0 КГц
Битовая глубина : 16 бит
Метод сжатия : С потерями
Размер потока : 357 Мбайт (24%)
Заголовок : Дублированный
Язык : Russian
Default : Да
Forced : Нет

Текст #1
Идентификатор : 3
Формат : UTF-8
Идентификатор кодека : S_TEXT/UTF8
Идентификатор кодека/Информация : UTF-8 Plain Text
Язык : Russian
Default : Да
Forced : Нет

Текст #2
Идентификатор : 4
Формат : UTF-8
Идентификатор кодека : S_TEXT/UTF8
Идентификатор кодека/Информация : UTF-8 Plain Text
Язык : English
Default : Нет
Forced : Нет



Скачать Кочевник.Köshpendiler.(Сергей.Бодров.Иван.Пассер.Талгат.Теменов).[2005.драма.военный.история.BDRip-AVC].[Dub]+[Sub]x2.torrent без регистрации
Золото ЗОЛОТАЯ РАЗДАЧА! СКАЧАННОЕ НЕ ЗАСЧИТЫВАЕТСЯ! Золото
Дата: Зарегистрирован   [ Тип: внутренний ] Как тут cкачать?
MAGNET ссылка
MAGNET ссылка


Скачать .torrent

15 KB

Статус: проверено DHT
Скачан: торрент - 116 раз, раздача полностью - 43 раз
Размер: 1,45 GB
Оценка:  - (Голосов: 0)
Поблагодарили: 1
Поделиться ссылкой на эту раздачу с друзьями:
В контактеFacebookОдноклассникиTwitterLivejournalМой МирLiveinternet
 

 
Показать сообщения:    


Вы не можете начинать темы
Вы не можете отвечать на сообщения
Вы не можете редактировать свои сообщения
Вы не можете удалять свои сообщения
Вы не можете голосовать в опросах
Вы не можете прикреплять файлы к сообщениям
Вы можете скачивать файлы