Loading...
Error

Скачать Воровка / Burglar (Хью Уилсон) [1987, комедия, криминал, WEB-DLRip] [MVO]+[AVO] торрент без регистрации

 
Статистика раздачи
Размер:  1,46 GB   |    Скачан:  100 раз
Сидов:  1  [  0 KB/s  ]  
 
Автор Сообщение

Marsianka

[] 

Информация о фильме
Название: Воровка
Оригинальное название: Burglar
Год выхода: 1987
Жанр: комедия, криминал
Режиссер: Хью Уилсон / Hugh Wilson
В ролях: Вупи Голдберг, Боб Гоулдтуэйт, Дж. У. Бэйли, Лесли Энн Уоррен, Джеймс Хэнди, Анна Де Сальво, Элизабет Рушио, Вито Ругинис, Ларри Минтц, Рэй Берк, Эрик Поппик, Скотт Линкольн, Том Брэй, Натан Дэвис, Лия Сарджент, Стивен Шеллен, Фреди Олстер, Рик Хэмилтон, Дэннис Ричмонд, Билл Джеллифф, Майк Пневски, Гаррисон Хершбергер, Бренда Хэйес, Джон Х. Филдс, Бретт Маркс, Дэвид Партингтон, Джек О'Лири, Маргарет Ленси, Этан Филлипс

О фильме:
Единственная и неповторимая Вупи Голдберг в роли остроумной и изобретательной воровки Бернис Роденбарр! Пытаясь покончить со своим криминальным хобби, она решается «пойти на дело» в последний раз. Но там, где она, все идет убийственно неверно: в обчищенной квартире найден труп…Для того, чтобы раскрыть убийство, реабилитировать свое имя и одновременно избежать встречи с полицией и настоящим преступником, Бернис и ее чудаковатый друг — собачий парикмахер Карл — начинают собственное расследование…



Страна: США, Канада
Студия: Warner Bros. Pictures
Продолжительность: 01:42:02
Перевод: Профессиональный (многоголосый закадровый) Варус-Видео, Авторский (одноголосый закадровый) А. Михалев

Файл
Кодек: XviD
Качество: WEB-DLRip
Видео: 704x400, 23.976 fps, 1654 kbps
Аудио 1: AC3, 2 ch, 192 kbps, 48.0 KHz| Варус Видео
Аудио 2: AC3, 2 ch, 192 kbps, 48.0 KHz| А.Михалев
Общее
Полное имя : Vorovka.1987.WEB-DLRip.avi
Формат : AVI
Формат/Информация : Audio Video Interleave
Размер файла : 1,46 Гбайт
Продолжительность : 1 ч. 42 м.
Общий поток : 2052 Кбит/сек
Программа кодирования : VirtualDubMod 1.5.10.2 (build 2542/release)
Библиотека кодирования : VirtualDubMod build 2542/release

Видео
Идентификатор : 0
Формат : MPEG-4 Visual
Профиль формата : Advanced Simple@L5
Параметр BVOP формата : 1
Параметр QPel формата : Нет
Параметр GMC формата : Без точки перехода
Параметр матрицы формата : Выборочная
Идентификатор кодека : XVID
Идентификатор кодека/Подсказка : XviD
Продолжительность : 1 ч. 42 м.
Битрейт : 1654 Кбит/сек
Ширина : 704 пикс.
Высота : 400 пикс.
Соотношение сторон : 16:9
Частота кадров : 23,976 кадр/сек
Цветовое пространство : YUV
Подвыборка цветности : 4:2:0
Битовая глубина : 8 бит
Тип развёртки : Прогрессивная
Метод сжатия : С потерями
Бит/(Пиксели*Кадры) : 0.245
Размер потока : 1,18 Гбайт (81%)
Библиотека кодирования : XviD 73

Аудио #1
Идентификатор : 1
Формат : AC-3
Формат/Информация : Audio Coding 3
Расширение режима : CM (complete main)
Идентификатор кодека : 2000
Продолжительность : 1 ч. 42 м.
Вид битрейта : Постоянный
Битрейт : 192 Кбит/сек
Канал(ы) : 2 канала(ов)
Расположение каналов : Front: L R
Частота : 48,0 КГц
Битовая глубина : 16 бит
Метод сжатия : С потерями
Размер потока : 140 Мбайт (9%)
Выравнивание : Разделение по промежуткам
Продолжительность промежутка : 42 мс. (1,00 видеокадр)
Время предзагрузки промежутка : 500 ms

Аудио #2
Идентификатор : 2
Формат : AC-3
Формат/Информация : Audio Coding 3
Расширение режима : CM (complete main)
Идентификатор кодека : 2000
Продолжительность : 1 ч. 42 м.
Вид битрейта : Постоянный
Битрейт : 192 Кбит/сек
Канал(ы) : 2 канала(ов)
Расположение каналов : Front: L R
Частота : 48,0 КГц
Битовая глубина : 16 бит
Метод сжатия : С потерями
Размер потока : 140 Мбайт (9%)
Выравнивание : Разделение по промежуткам
Продолжительность промежутка : 42 мс. (1,00 видеокадр)
Время предзагрузки промежутка : 500 ms
Релиз от: Leon-masl



Скачать Воровка.Burglar.(Хью.Уилсон).[1987.комедия.криминал.WEB-DLRip].[MVO]+[AVO].torrent без регистрации
Золото ЗОЛОТАЯ РАЗДАЧА! СКАЧАННОЕ НЕ ЗАСЧИТЫВАЕТСЯ! Золото
Дата: Зарегистрирован   [ Тип: внутренний ] Как тут cкачать?
MAGNET ссылка
MAGNET ссылка


Скачать .torrent

16 KB

Статус: проверено DHT
Скачан: торрент - 100 раз, раздача полностью - 5 раз
Размер: 1,46 GB
Оценка:  - (Голосов: 0)
Поблагодарили: 1
Поделиться ссылкой на эту раздачу с друзьями:
В контактеFacebookОдноклассникиTwitterLivejournalМой МирLiveinternet
 

 
Показать сообщения:    


Вы не можете начинать темы
Вы не можете отвечать на сообщения
Вы не можете редактировать свои сообщения
Вы не можете удалять свои сообщения
Вы не можете голосовать в опросах
Вы не можете прикреплять файлы к сообщениям
Вы можете скачивать файлы