Loading...
Error

Скачать Подлый Пит / Sneaky Pete (01х01 из 10) (Сет Гордон) [2015, драма, криминал, WEB-DL] [720p] [MVO (AlexFilm)]+[Eng] торрент без регистрации

 
Статистика раздачи
Размер:  1,69 GB   |    Скачан:  79 раз
Сидов:  1  [  0 KB/s  ]  
 
Автор Сообщение

МихаНЕзатор

[] 

Название: Подлый Пит
Оригинальное название: Sneaky Pete
Год выхода: 2015
Жанр: драма, криминал
Режиссер: Сет Гордон

В ролях: Джованни Рибизи, Марин Айрлэнд, Марго Мартиндейл, Шэйн МакРей, Либэ Барер, Питер Герети, Итэн Эмбри, Доменик Ломбардоззи, Дебра Монк, Майкл Дрэйер..

О фильме: По сюжету молодой мошенник Пит, отсидев положенный срок, решает завязать с тёмным прошлым, примерив на себя личину бывшего сокамерника. Скрываясь от местной мафии, парень пристраивается в семейный бизнес того самого сокамерника. Со временем он осознает, что такое настоящая семья, и даже обретёт любовь всей своей жизни, но прошлые грехи не позволят ему расслабиться ни на минуту, угрожая уничтожить и главного героя, и его новую жизнь.

Релиз группа:

Страна: США
Продолжительность: ~00:50:00
Перевод: Профессиональный (многоголосый закадровый) AlexFilm
Субтитры: Отсутствуют

Файл
Кодек: MKV
Качество: WEB-DL 720p (Amazon)
Видео: 1280x720 (16:9), 23.976 fps, MPEG-4 AVC ~4586 kbps avg, 0.201 bit/pixel
Аудио Rus: 48 kHz, AC3 Dolby Digital, 2.0 ch, 192.00 kbps
Аудио Eng: 48 kHz, AC3 Dolby Digital, 2.0 ch, 192.00 kbps

АНОНСЫ ПОПУЛЯРНЫХ РАЗДАЧ
Формат : Matroska
Версия формата : Version 4 / Version 2
Размер файла : 1,69 Гбайт
Продолжительность : 47 м.
Общий поток : 5066 Кбит/сек
Название фильма : Sneaky Pete 1x01 @ AlexFilm
Дата кодирования : UTC 2015-09-06 15:49:51
Программа кодирования : mkvmerge v7.1.0 ('Good Love') 64bit built on Jul 27 2014 13:06:55
Библиотека кодирования : libebml v1.3.0 + libmatroska v1.4.1
Видео
Идентификатор : 1
Формат : AVC
Формат/Информация : Advanced Video Codec
Профиль формата : High@L4.1
Параметр CABAC формата : Да
Параметр ReFrames формата : 9 кадров
Идентификатор кодека : V_MPEG4/ISO/AVC
Битрейт : 4581 Кбит/сек
Ширина : 1280 пикселей
Высота : 720 пикселей
Соотношение сторон : 16:9
Режим частоты кадров : Переменный
Цветовое пространство : YUV
Субдискретизация насыщенности : 4:2:0
Битовая глубина : 8 бит
Тип развёртки : Прогрессивная
Библиотека кодирования : x264 core 148
Настройки программы : cabac=1 / ref=9 / deblock=1:-3:-3 / analyse=0x3:0x133 / me=umh / subme=10 / psy=1 / psy_rd=1.05:0.00 / mixed_ref=1 / me_range=48 / chroma_me=1 / trellis=2 / 8x8dct=1 / cqm=0 / deadzone=21,11 / fast_pskip=0 / chroma_qp_offset=-2 / threads=12 / lookahead_threads=2 / sliced_threads=0 / nr=0 / decimate=1 / interlaced=0 / bluray_compat=0 / constrained_intra=0 / bframes=8 / b_pyramid=2 / b_adapt=2 / b_bias=0 / direct=3 / weightb=1 / open_gop=0 / weightp=2 / keyint=240 / keyint_min=24 / scenecut=40 / intra_refresh=0 / rc_lookahead=150 / rc=crf / mbtree=1 / crf=17.0 / qcomp=0.80 / qpmin=0 / qpmax=69 / qpstep=4 / ip_ratio=1.40 / aq=3:1.00
Язык : English
Default : Да
Forced : Нет
Аудио #1
Идентификатор : 2
Формат : AC-3
Формат/Информация : Audio Coding 3
Расширение режима : CM (complete main)
Параметр Endianness формата : Big
Идентификатор кодека : A_AC3
Продолжительность : 47 м.
Вид битрейта : Постоянный
Битрейт : 192 Кбит/сек
Каналы : 2 канала
Расположение каналов : Front: L R
Частота : 48,0 КГц
Битовая глубина : 16 бит
Метод сжатия : С потерями
Размер потока : 65,4 Мбайт (4%)
Заголовок : DD2.0 AlexFilm
Язык : Russian
Default : Да
Forced : Нет
Аудио #2
Идентификатор : 3
Формат : AC-3
Формат/Информация : Audio Coding 3
Расширение режима : CM (complete main)
Параметр Endianness формата : Big
Идентификатор кодека : A_AC3
Продолжительность : 47 м.
Вид битрейта : Постоянный
Битрейт : 192 Кбит/сек
Каналы : 2 канала
Расположение каналов : Front: L R
Частота : 48,0 КГц
Битовая глубина : 16 бит
Метод сжатия : С потерями
Размер потока : 65,4 Мбайт (4%)
Заголовок : DD2.0 Original
Язык : English
Default : Нет
Forced : Нет
Внимание! Раздача ведётся путём добавления новых серий; при каждом добавлении создаётся новый торрент. Чтобы начать докачку новой серии, пользователям необходимо сделать следующее:
(1) остановить скачивание,
(2) удалить старый торрент у себя из клиента (старые серии удалять не надо),
(3) скачать новый торрент и запустить его у себя в клиенте вместо старого, при этом указать клиенту путь в старую папку куда и должно происходить скачивание новых серий.

Ваш клиент при этом должен произвести хеширование (проверку) старой папки (если не производит сам - помогите ему сделать это), и будет докачивать только те серии которых у вас ещё нет. Старые серии при этом не удаляются, а продолжают раздаваться!

Eсли вы уже удалили старые серии, то предотвратить повторную закачку старых серий можно, отжав галочку в соответсвующих местах при запуске нового торрента. По возможности, желательно не удалять старые серии как можно дольше чтобы релизёр не столько продолжал раздавать старые серии, а смог сконцентрироваться на новых.



Скачать Подлый.Пит.Sneaky.Pete.(01х01.из.10).(Сет.Гордон).[2015.драма.криминал.WEB-DL].[720p].[MVO.(AlexFilm)]+[Eng].torrent без регистрации
Золото ЗОЛОТАЯ РАЗДАЧА! СКАЧАННОЕ НЕ ЗАСЧИТЫВАЕТСЯ! Золото
Дата: Зарегистрирован   [ Тип: внутренний ] Как тут cкачать?
MAGNET ссылка
MAGNET ссылка


Скачать .torrent

18 KB

Статус: проверено DHT
Скачан: торрент - 79 раз, раздача полностью - 3 раз
Размер: 1,69 GB
Оценка:  - (Голосов: 0)
Поблагодарили: 1
Поделиться ссылкой на эту раздачу с друзьями:
В контактеFacebookОдноклассникиTwitterLivejournalМой МирLiveinternet
 

 
Показать сообщения:    


Вы не можете начинать темы
Вы не можете отвечать на сообщения
Вы не можете редактировать свои сообщения
Вы не можете удалять свои сообщения
Вы не можете голосовать в опросах
Вы не можете прикреплять файлы к сообщениям
Вы можете скачивать файлы