Loading...
Error

Скачать Ты - воплощение порока / Ты - отстой / You're The Worst (сезон 2) (Джордан Вот-Робертс) [2015, мелодрама, комедия, WEB-DLRip] [MVO (BaibaKo)]+[Original] торрент без регистрации

 
Статистика раздачи
Размер:  4,04 GB   |    Скачан:  1820 раз
Сидов:  1  [  0 KB/s  ]  
 
Автор Сообщение

МихаНЕзатор

[] 

Ты - воплощение порока | Ты - отстой | You're The Worst


Год выпуска: 2014
Страна: США
Жанр: мелодрама, комедия
Продолжительность: ~ 00:27:00
Перевод: Профессиональный (многоголосый закадровый) | BaibaKo
Режиссёр: Джордан Вот-Робертс

В ролях: Крис Гир, Джинджер Гонзага, Ая Кэш, Кетер Донохью, Брэндон Смит, Кулиа Прескотт, Каллард Харрис, Джонни 5, Линн А. Фридман

Описание: Комедийная любовная история о том, как два совершенно порочных человека влюбляются и пытаются совершить невозможное – завязать отношения.



Качество: WEB-DLRip
Формат: AVI
Видео: XviD, 720x400 (16:9), 23,976 fps, ~1500 kbps
Аудио 1: MP3, 48 kHz, 2 ch, 192 kbps - Rus
Аудио 2: MP3, 48 kHz, 2 ch, 192 kbps - Eng
Субтитры: отсутствуют

АНОНСЫ ПОПУЛЯРНЫХ РАЗДАЧ


Торрент обновлён, добавлена 13-я серия!
Общее
Формат : AVI
Формат/Информация : Audio Video Interleave
Размер файла : 322 Мбайт
Продолжительность : 23 м.
Общий поток : 1897 Кбит/сек
Программа кодирования : VirtualDubMod 1.5.10.2 (build 2542/release)
Библиотека кодирования : VirtualDubMod build 2542/release
Видео
Идентификатор : 0
Формат : MPEG-4 Visual
Профиль формата : Advanced Simple@L5
Параметр BVOP формата : 2
Параметр QPel формата : Нет
Параметр GMC формата : Без точки перехода
Параметр матрицы формата : Default (H.263)
Идентификатор кодека : XVID
Идентификатор кодека/Подсказка : XviD
Продолжительность : 23 м.
Битрейт : 1499 Кбит/сек
Ширина : 720 пикселей
Высота : 400 пикселей
Соотношение сторон : 16:9
Частота кадров : 23,976 кадра/сек
Цветовое пространство : YUV
Субдискретизация насыщенности : 4:2:0
Битовая глубина : 8 бит
Тип развёртки : Прогрессивная
Метод сжатия : С потерями
Бит/(Пиксели*Кадры) : 0.217
Размер потока : 255 Мбайт (79%)
Библиотека кодирования : XviD 65
Аудио #1
Идентификатор : 1
Формат : MPEG Audio
Версия формата : Version 1
Профиль формата : Layer 3
Режим : Joint stereo
Расширение режима : MS Stereo
Идентификатор кодека : 55
Идентификатор кодека/Подсказка : MP3
Продолжительность : 23 м.
Вид битрейта : Постоянный
Битрейт : 192 Кбит/сек
Каналы : 2 канала
Частота : 48,0 КГц
Метод сжатия : С потерями
Размер потока : 32,6 Мбайт (10%)
Выравнивание : Соединение по промежуткам
Продолжительность промежутка : 42 мс. (1,00 видеокадр)
Время предзагрузки промежутка : 504 мс.
Аудио #2
Идентификатор : 2
Формат : MPEG Audio
Версия формата : Version 1
Профиль формата : Layer 3
Режим : Joint stereo
Расширение режима : MS Stereo
Идентификатор кодека : 55
Идентификатор кодека/Подсказка : MP3
Продолжительность : 23 м.
Вид битрейта : Постоянный
Битрейт : 192 Кбит/сек
Каналы : 2 канала
Частота : 48,0 КГц
Метод сжатия : С потерями
Размер потока : 32,6 Мбайт (10%)
Выравнивание : Соединение по промежуткам
Продолжительность промежутка : 42 мс. (1,00 видеокадр)
Время предзагрузки промежутка : 504 мс.
Когда раздача ведётся путём добавления новых серий, при каждом добавлении создётся новый торрент. Чтобы начать докачку новой серии, пользователям необходимо сделать следующее:
(1) остановить скачивание,
(2) удалить старый торрент у себя из клиента (старые серии удалять не надо),
(3) скачать новый торрент и запустить его у себя в клиенте вместо старого, при этом указать клиенту путь в старую папку, куда и должно происходить скачивание новых серий.
Ваш клиент при этом должен произвести хеширование (проверку) старой папки (если не производит сам - помогите ему сделать это), и будет докачивать только те серии, которых у вас ещё нет. Старые серии при этом не удаляются, а продолжают раздаваться!
Eсли вы уже удалили старые серии, то предотвратить повторную закачку старых серий можно, отжав галочку в соответсвующих местах при запуске нового торрента. По возможности, желательно не удалять старые серии как можно дольше, чтобы релизёр не столько продолжал раздавать старые серии, а смог сконцентрироваться на новых.



Скачать Ты.-.воплощение.порока.Ты.-.отстой.You're.The.Worst.(сезон.2).(Джордан.Вот-Робертс).[2015.мелодрама.комедия.WEB-DLRip].[MVO.(BaibaKo)]+[Original].torrent без регистрации
Золото ЗОЛОТАЯ РАЗДАЧА! СКАЧАННОЕ НЕ ЗАСЧИТЫВАЕТСЯ! Золото
Дата: Зарегистрирован   [ Тип: внутренний ] Как тут cкачать?
MAGNET ссылка
MAGNET ссылка


Скачать .torrent

22 KB

Статус: проверено DHT
Скачан: торрент - 1820 раз, раздача полностью - 2 раз
Размер: 4,04 GB
Оценка:  - (Голосов: 0)
Поблагодарили: 0
Поделиться ссылкой на эту раздачу с друзьями:
В контактеFacebookОдноклассникиTwitterLivejournalМой МирLiveinternet
 

 
Показать сообщения:    


Вы не можете начинать темы
Вы не можете отвечать на сообщения
Вы не можете редактировать свои сообщения
Вы не можете удалять свои сообщения
Вы не можете голосовать в опросах
Вы не можете прикреплять файлы к сообщениям
Вы можете скачивать файлы