Loading...
Error

Скачать Адамовы яблоки / Adams æbler (Андерс Томас Йенсен) [2005, драма, комедия, криминал, BDRip-AVC] [MVO]+[Sub]x3 торрент без регистрации

 
Статистика раздачи
Размер:  1,45 GB   |    Скачан:  102 раза
Сидов:  1  [  0 KB/s  ]  
 
Автор Сообщение

Marsianka

[] 



Информация о фильме
Название: Адамовы яблоки
Оригинальное название: Adams æbler
Год выхода: 2005
Жанр: драма, комедия, криминал
Режиссер: Андерс Томас Йенсен /Anders Thomas Jensen/
В ролях: Ульрих Томсен /Ulrich Thomsen/, Мадс Миккельсен /Mads Mikkelsen/, Николас Бро /Nicolas Bro/, Паприка Стеэн /Paprika Steen/, Али Казим /Ali Kazim/, Оле Теструп /Ole Thestrup/, Николай Ли Каас /Nikolaj Lie Kaas/, Гирд Лофквист /Gyrd Løfqvist/, Ларс Ранте /Lars Ranthe/, Петер Райхгардт /Peter Reichhardt/ и др.

О фильме:
Адам, бывший лидер неонацистской группировки, досрочно освобождён из тюрьмы. Ему приходится пройти испытательный срок в сельской церкви, настоятелем которой является Иван, верящий в добро и честность людей. Адаму же этот испытательный срок нужен только для того, чтобы переждать некоторое время и вернуться к своим старым занятиям. История непростых взаимоотношений между двумя такими разными персонажами и легла в основу этого фильма.



Страна: Дания, Германия
Студия: M&M Productions / August Film & TV GmbH / Danmarks Radio (DR)
Продолжительность: 01:35:04
Перевод: Профессиональный (многоголосый, закадровый)
Перевод: Леонид Векшин
Роли озвучивали: Руслан Габидуллин, Пётр Гланц, Инна Королёва

Файл
Кодек: H.264
Качество: BDRip-AVC
Видео: 1000x436 at 23.976 fps, x264@L4.1, ~1800 kbps
Аудио: 48 kHz, AC3, 3/2 (L,C,R,l,r) + LFE ch, ~384 kbps
Субтитры: Russian (3 x Full - Wiseguy, Yaryk, giveaway), English (Full), Danish (SDH)



General
Unique ID : 240090444699009556942645845565532522441 (0xB49FBCD8A48F8A9F821B51634FCBC7C9)
Complete name : F:FILMSАдамовы яблоки.(2005).BDRIP_AVC.[-=DoMiNo=-].mkv
Format : Matroska
Format version : Version 4 / Version 2
File size : 1.45 GiB
Duration : 1h 35mn
Overall bit rate : 2 182 Kbps
Movie name : Адамовы яблоки.(2005).BDRIP_AVC.[-=DoMiNo=-]
Encoded date : UTC 2015-09-11 03:20:01
Writing application : mkvmerge v8.3.0 ('Over the Horizon') 64bit
Writing library : libebml v1.3.1 + libmatroska v1.4.2
DURATION : 01:30:05.129000000
NUMBER_OF_FRAMES : 728
NUMBER_OF_BYTES : 34972
_STATISTICS_WRITING_APP : mkvmerge v8.3.0 ('Over the Horizon') 64bit
_STATISTICS_WRITING_DATE_UT : 2015-09-11 03:20:01
_STATISTICS_TAGS : BPS DURATION NUMBER_OF_FRAMES NUMBER_OF_BYTES

Video
ID : 1
Format : AVC
Format/Info : Advanced Video Codec
Format profile : High@L4.1
Format settings, CABAC : Yes
Format settings, ReFrames : 12 frames
Codec ID : V_MPEG4/ISO/AVC
Duration : 1h 35mn
Bit rate : 1 800 Kbps
Width : 1 000 pixels
Height : 436 pixels
Display aspect ratio : 2.25:1
Frame rate mode : Constant
Frame rate : 23.976 fps
Color space : YUV
Chroma subsampling : 4:2:0
Bit depth : 8 bits
Scan type : Progressive
Bits/(Pixel*Frame) : 0.172
Stream size : 1.17 GiB (80%)
Title : Адамовы яблоки
Writing library : x264 core 148 r2597M e86f3a1
Encoding settings : cabac=1 / ref=12 / deblock=1:-3:-3 / analyse=0x3:0x133 / me=umh / subme=11 / psy=1 / psy_rd=1.00:0.10 / mixed_ref=1 / me_range=32 / chroma_me=1 / trellis=2 / 8x8dct=1 / cqm=0 / deadzone=21,11 / fast_pskip=0 / chroma_qp_offset=-3 / threads=5 / lookahead_threads=1 / sliced_threads=0 / nr=0 / decimate=1 / interlaced=0 / bluray_compat=0 / constrained_intra=0 / bframes=11 / b_pyramid=2 / b_adapt=2 / b_bias=0 / direct=3 / weightb=1 / open_gop=0 / weightp=2 / keyint=230 / keyint_min=23 / scenecut=40 / intra_refresh=0 / rc=2pass / mbtree=0 / bitrate=1800 / ratetol=1.0 / qcomp=0.60 / qpmin=0 / qpmax=69 / qpstep=4 / cplxblur=20.0 / qblur=0.5 / ip_ratio=1.40 / pb_ratio=1.30 / aq=1:1.00
Language : Russian
Default : Yes
Forced : No
Color range : Limited
Color primaries : BT.709
Transfer characteristics : BT.709
Matrix coefficients : BT.709
DURATION : 01:35:03.949000000
NUMBER_OF_FRAMES : 136758
NUMBER_OF_BYTES : 1281339938
_STATISTICS_WRITING_APP : mkvmerge v8.3.0 ('Over the Horizon') 64bit
_STATISTICS_WRITING_DATE_UT : 2015-09-11 03:20:01
_STATISTICS_TAGS : BPS DURATION NUMBER_OF_FRAMES NUMBER_OF_BYTES

Audio
ID : 2
Format : AC-3
Format/Info : Audio Coding 3
Mode extension : CM (complete main)
Format settings, Endianness : Big
Codec ID : A_AC3
Duration : 1h 35mn
Bit rate mode : Constant
Bit rate : 384 Kbps
Channel(s) : 6 channels
Channel positions : Front: L C R, Side: L R, LFE
Sampling rate : 48.0 KHz
Compression mode : Lossy
Delay relative to video : 27ms
Stream size : 261 MiB (18%)
Title : MVO-P
Language : Russian
Default : Yes
Forced : No
DURATION : 01:35:07.968000000
NUMBER_OF_FRAMES : 178374
NUMBER_OF_BYTES : 273982464
_STATISTICS_WRITING_APP : mkvmerge v8.3.0 ('Over the Horizon') 64bit
_STATISTICS_WRITING_DATE_UT : 2015-09-11 03:20:01
_STATISTICS_TAGS : BPS DURATION NUMBER_OF_FRAMES NUMBER_OF_BYTES

Text #1
ID : 3
Format : UTF-8
Codec ID : S_TEXT/UTF8
Codec ID/Info : UTF-8 Plain Text
Title : Full - Wiseguy
Language : Russian
Default : No
Forced : No

Text #2
ID : 4
Format : UTF-8
Codec ID : S_TEXT/UTF8
Codec ID/Info : UTF-8 Plain Text
Title : Full - Yaryk
Language : Russian
Default : No
Forced : No

Text #3
ID : 5
Format : UTF-8
Codec ID : S_TEXT/UTF8
Codec ID/Info : UTF-8 Plain Text
Title : Full - giveaway
Language : Russian
Default : No
Forced : No

Text #4
ID : 6
Format : UTF-8
Codec ID : S_TEXT/UTF8
Codec ID/Info : UTF-8 Plain Text
Title : Full
Language : English
Default : No
Forced : No

Text #5
ID : 7
Format : UTF-8
Codec ID : S_TEXT/UTF8
Codec ID/Info : UTF-8 Plain Text
Title : SDH
Language : Danish
Default : No
Forced : No

Menu
00:00:00.000 : :00:00:00.000
00:08:07.987 : :00:08:07.987
00:15:20.586 : :00:15:20.586
00:22:09.662 : :00:22:09.662
00:31:33.141 : :00:31:33.141
00:37:48.766 : :00:37:48.766
00:48:14.433 : :00:48:14.433
00:57:58.100 : :00:57:58.100
01:05:00.271 : :01:05:00.271
01:11:01.631 : :01:11:01.632
01:19:13.457 : :01:19:13.457
01:24:46.164 : :01:24:46.164
01:32:09.357 : :01:32:09.357







Скачать Адамовы.яблоки.Adams.æbler.(Андерс.Томас.Йенсен).[2005.драма.комедия.криминал.BDRip-AVC].[MVO]+[Sub]x3.torrent без регистрации
Золото ЗОЛОТАЯ РАЗДАЧА! СКАЧАННОЕ НЕ ЗАСЧИТЫВАЕТСЯ! Золото
Дата: Зарегистрирован   [ Тип: внутренний ] Как тут cкачать?
MAGNET ссылка
MAGNET ссылка


Скачать .torrent

15 KB

Статус: проверено DHT
Скачан: торрент - 102 раз, раздача полностью - 9 раз
Размер: 1,45 GB
Оценка:  - (Голосов: 0)
Поблагодарили: 1
Поделиться ссылкой на эту раздачу с друзьями:
В контактеFacebookОдноклассникиTwitterLivejournalМой МирLiveinternet
 

 
Показать сообщения:    


Вы не можете начинать темы
Вы не можете отвечать на сообщения
Вы не можете редактировать свои сообщения
Вы не можете удалять свои сообщения
Вы не можете голосовать в опросах
Вы не можете прикреплять файлы к сообщениям
Вы можете скачивать файлы