Loading...
Error

Скачать Террористы / Captain Nuke and the Bomber Boys (Чарльз Гэйл / Charles Gale) [1995, триллер, комедия, DVDRip] [AVO] (Юрий Сербин) торрент без регистрации

 
Статистика раздачи
Размер:  1,25 GB   |    Скачан:  84 раза
Сидов:  1  [  0 KB/s  ]  
 
Автор Сообщение

leon030982

[] 

Террористы / Captain Nuke and the Bomber Boys


Год выпуска: 1995
Страна: США
Жанр: триллер, комедия
Продолжительность: 01:27:54
Перевод: Авторский (одноголосый закадровый) Юрий Сербин (Видеосервис)
Cубтитры: нет

Режиссер: Чарльз Гэйл / Charles Gale

В ролях: Мартин Шин, Джо Мантенья, Джоанна Пакула, Кейт Малгрю, Род Стайгер, Майкл Толбот, Ребекка Бьюдиг, Ванда Де Хесус, Джо Пископо, Джошуа Шэфер

Описание: Сумасбродная комедия, сюжет которой вращается вокруг трех американских подростков, которые, случайно обнаружив настоящую атомную бомбу, звонят президенту, требуя выполнить их условие… отменить школу!



Качество видео: DVDRip
Формат видео: AVI
Видео кодек: XviD
Аудио кодек: AC3
Видео: 704x400 (1.76:1), 25 fps, XviD build 50 ~1834 kbps avg, 0.26 bit/pixel
Аудио: 48 kHz, AC3 Dolby Digital, 2/0 (L,R) ch, ~192 kbps

edich2 писал(а):

Fikaloid - за дорожку с переводом AVO с VHS
xelon2006 - за синхрон дорожки.
serg peresad - за исходник ДВД5
Релиз
Террористы - Captain Nuke and the Bomber Boys [by Edich2].avi
Format : AVI
Format/Info : Audio Video Interleave
File size : 1.25 GiB
Duration : 1h 27mn
Overall bit rate : 2 036 Kbps
Movie name : Террористы - Captain Nuke and the Bomber Boys [by Edich2]
Director : by Edich2
Writing application : VirtualDubMod 1.5.10.2 (build 2540/release)
Comment : RuTracker.org
Video
ID : 0
Format : MPEG-4 Visual
Format profile : Advanced Simple@L5
Format settings, BVOP : 1
Format settings, QPel : No
Format settings, GMC : No warppoints
Format settings, Matrix : Default (MPEG)
Codec ID : XVID
Codec ID/Hint : XviD
Duration : 1h 27mn
Bit rate : 1 835 Kbps
Width : 704 pixels
Height : 400 pixels
Display aspect ratio : 16:9
Frame rate : 25.000 fps
Color space : YUV
Chroma subsampling : 4:2:0
Bit depth : 8 bits
Scan type : Progressive
Compression mode : Lossy
Bits/(Pixel*Frame) : 0.261
Stream size : 1.13 GiB (90%)
Writing library : XviD 1.2.1 (UTC 2008-12-04)
Audio
ID : 1
Format : AC-3
Format/Info : Audio Coding 3
Mode extension : CM (complete main)
Format settings, Endianness : Big
Codec ID : 2000
Duration : 1h 27mn
Bit rate mode : Constant
Bit rate : 192 Kbps
Channel(s) : 2 channels
Channel positions : Front: L R
Sampling rate : 48.0 KHz
Bit depth : 16 bits
Compression mode : Lossy
Stream size : 121 MiB (9%)
Alignment : Split accross interleaves
Interleave, duration : 40 ms (1.00 video frame)
Interleave, preload duration : 500 ms



Скачать Террористы.Captain.Nuke.and.the.Bomber.Boys.(Чарльз.Гэйл.Charles.Gale).[1995.триллер.комедия.DVDRip].[AVO].(Юрий.Сербин).torrent без регистрации
Золото ЗОЛОТАЯ РАЗДАЧА! СКАЧАННОЕ НЕ ЗАСЧИТЫВАЕТСЯ! Золото
Дата: Зарегистрирован   [ Тип: внутренний ] Как тут cкачать?
MAGNET ссылка
MAGNET ссылка


Скачать .torrent

13 KB

Статус: проверено DHT
Скачан: торрент - 84 раз, раздача полностью - 8 раз
Размер: 1,25 GB
Оценка:  5 (Голосов: 1)
Поблагодарили: 1
Поделиться ссылкой на эту раздачу с друзьями:
В контактеFacebookОдноклассникиTwitterLivejournalМой МирLiveinternet
 

 
Показать сообщения:    


Вы не можете начинать темы
Вы не можете отвечать на сообщения
Вы не можете редактировать свои сообщения
Вы не можете удалять свои сообщения
Вы не можете голосовать в опросах
Вы не можете прикреплять файлы к сообщениям
Вы можете скачивать файлы