Loading...
Error

Скачать Лови момент / Захватить день / Seize the Day (Филдер Кук / Fielder Cook) [1986, драма, DVDRip] [AVO] (Ю.Сербин) + [Orig] (eng) торрент без регистрации

 
Статистика раздачи
Размер:  1,5 GB   |    Скачан:  103 раза
Сидов:  1  [  0 KB/s  ]  
 
Автор Сообщение

leon030982

[] 

Лови момент / Захватить день / Seize the Day


Год выпуска: 1986
Страна: США
Жанр: драма
Продолжительность: 01:29:16
Перевод: Авторский (одноголосый, закадровый) Ю.Сербин
Оригинальная аудио-дорожка: есть (английская)
Cубтитры: нет
Режиссер: Филдер Кук / Fielder Cook

В ролях: Робин Уильямс, Ричард Б. Шалл, Дэвид Бикфорд, Гленн Хедли, Стивен Стримпелл, Джозеф Уайзмен, Джейн Хеллер, Кэтрин Боровиц, Джон Фидлер, Уильям Дюэл и др.

Описание: Действие фильма разворачивается в 50-е годы XX века. Томми Вильгельм — мужчина средних лет, только что потерявший свою работу в качестве продавца. Его жена, с которой они находятся на грани развода, намерена обчистить его до нитки бракоразводным процессом, несмотря на то, что у него нет источников дохода. Доктор Адлер, своенравный отец Томми, не может потерпеть того, что в его семье есть неудачник и не дает ему ни копейки. В отчаянии, Томми направляется в Нью-Йорк, где его старый приятель-прохвост доктор Тэмкин пообещал найти ему работу. Однако даже там Томми ждет холодный прием, который ему оказали люди, мнение которых он больше всего ценит.



Качество видео: DVDRip
Формат видео: AVI
Видео кодек: XviD
Аудио кодек: AC3
Видео: 704x528 (4:3), 25 fps, XviD build 50 ~2000 kbps avg, 0.22 bit/pixel
Аудио 1: 48 kHz, AC3 Dolby Digital, 2/0 (L,R) ch, ~192.00 kbps avg (Rus)
Аудио 2: 48 kHz, AC3 Dolby Digital, 2/0 (L,R) ch, ~192.00 kbps avg (Eng)

Цитата:

покупка забугорного ДВД, создание рипа и спонсирование озвучки - *Sergeant_am*
Общее
Полное имя : D:\Лови момент.avi
Формат : AVI
Формат/Информация : Audio Video Interleave
Размер файла : 1,50 Гбайт
Продолжительность : 1 ч. 29 м.
Общий поток : 2398 Кбит/сек
Программа кодирования : VirtualDubModRus 1.5.10.2 (build 2542/release)
Библиотека кодирования : VirtualDubMod build 2542/release
Видео
Идентификатор : 0
Формат : MPEG-4 Visual
Профиль формата : Advanced Simple@L5
Параметр BVOP формата : 1
Параметр QPel формата : Нет
Параметр GMC формата : Без точки перехода
Параметр матрицы формата : Default (H.263)
Идентификатор кодека : DX50
Идентификатор кодека/Подсказка : DivX 5
Продолжительность : 1 ч. 29 м.
Битрейт : 2000 Кбит/сек
Ширина : 704 пикселя
Высота : 528 пикселей
Соотношение сторон : 4:3
Частота кадров : 25,000 кадров/сек
Цветовое пространство : YUV
Субдискретизация насыщенности : 4:2:0
Битовая глубина : 8 бит
Тип развёртки : Прогрессивная
Метод сжатия : С потерями
Бит/(Пиксели*Кадры) : 0.215
Размер потока : 1,25 Гбайт (83%)
Библиотека кодирования : XviD 1.2.1 (UTC 2008-12-04)
Аудио #1
Идентификатор : 1
Формат : AC-3
Формат/Информация : Audio Coding 3
Расширение режима : CM (complete main)
Параметр Endianness формата : Big
Идентификатор кодека : 2000
Продолжительность : 1 ч. 29 м.
Вид битрейта : Постоянный
Битрейт : 192 Кбит/сек
Каналы : 2 канала
Расположение каналов : Front: L R
Частота : 48,0 КГц
Битовая глубина : 16 бит
Метод сжатия : С потерями
Размер потока : 123 Мбайт (8%)
Выравнивание : Разделение по промежуткам
Продолжительность промежутка : 40 мс. (1,00 видеокадр)
Время предзагрузки промежутка : 500 мс.
Аудио #2
Идентификатор : 2
Формат : AC-3
Формат/Информация : Audio Coding 3
Расширение режима : CM (complete main)
Параметр Endianness формата : Big
Идентификатор кодека : 2000
Продолжительность : 1 ч. 29 м.
Вид битрейта : Постоянный
Битрейт : 192 Кбит/сек
Каналы : 2 канала
Расположение каналов : Front: L R
Частота : 48,0 КГц
Битовая глубина : 16 бит
Метод сжатия : С потерями
Размер потока : 123 Мбайт (8%)
Выравнивание : Разделение по промежуткам
Продолжительность промежутка : 40 мс. (1,00 видеокадр)
Время предзагрузки промежутка : 500 мс.



Скачать Лови.момент.Захватить.день.Seize.the.Day.(Филдер.Кук.Fielder.Cook).[1986.драма.DVDRip].[AVO].(Ю.Сербин).+.[Orig].(eng).torrent без регистрации
Золото ЗОЛОТАЯ РАЗДАЧА! СКАЧАННОЕ НЕ ЗАСЧИТЫВАЕТСЯ! Золото
Дата: Зарегистрирован   [ Тип: внутренний ] Как тут cкачать?
MAGNET ссылка
MAGNET ссылка


Скачать .torrent

16 KB

Статус: проверено DHT
Скачан: торрент - 103 раз, раздача полностью - 17 раз
Размер: 1,5 GB
Оценка:  - (Голосов: 0)
Поблагодарили: 1
Поделиться ссылкой на эту раздачу с друзьями:
В контактеFacebookОдноклассникиTwitterLivejournalМой МирLiveinternet
 

 
Показать сообщения:    


Вы не можете начинать темы
Вы не можете отвечать на сообщения
Вы не можете редактировать свои сообщения
Вы не можете удалять свои сообщения
Вы не можете голосовать в опросах
Вы не можете прикреплять файлы к сообщениям
Вы можете скачивать файлы