Loading...
Error

Скачать Все ненавидят Криса / Everybody Hates Chris (Сезон 1 полный) (Джерри Ливайн / Jerry Levine) [2005-2006, комедия, DVDRip-AVC] [VO] (Кураж-Бамбей) + [Original] + [Sub] торрент без регистрации

 
Статистика раздачи
Размер:  7,79 GB   |    Скачан:  1725 раз
Сидов:  1  [  0 KB/s  ]  
 
Автор Сообщение

leon030982

[] 


Все Ненавидят Криса / Everybody Hates Chris


«Inspired by Chris Rock's life... as a kid»


Год выпуска: 2005-2006
Страна: США
Жанр: комедия
Продолжительность: x 22 ~00:21:00
Перевод: Профессиональный (одноголосый, закадровый) [Кураж-Бамбей]
Оригинальная дорожка: английская
Субтитры: русские, английские
Навигация по главам: есть

Режиссёр: Джерри Ливайн / Jerry Levine

В ролях: Тайлер Джеймс Уильямс, Терри Крюс, Тичина Арнольд, Текуан Ричмонд, Имани Хаким, Винсент Мартелла, Трэвис Т. Флори, Жаклин Мацарелла, Кевонтай Джексон


"Частично автобиографический сериал, рассказывает историю жизни Криса Рока (знаменитый комик и актер), когда ему было 14 лет. Он, его родители, младший брат (Дрон) и сестра (Антонина) переезжают в новый район Бруклина. Отец Криса, Юрий Антоныч, работает на 4 работах, чтобы обеспечить семье достойную жизнь, а матрена - Роксана Бабаянна, следит за хозяйством, а также (иногда) работает в офисе. Криса часто дастают местные гопники, да и с девчонками ему как-то не везет. Так и живет юный пионЭр - то обламывается на свиданиях, то пытается не огрести "люлей" от хулиганов, а ведь еще ведь и бабло надо зарабатывать, чтобы батяне с матреной помогать.
Есть еще несколько интересных персонажей: друг Криса - Гришаня, мальчик-зайчик с легкими эмо-наклонностями (no gay), директор школы Раймонд, который в свободное от работы время ходит в клубы типа "Голубая Устрица", а также платит школьным "стукачкам" за то, чтобы они доносили на всех подряд, а также Долбанный Ирискин - местный барыга, но крайне приятный в общении тип. В общем - добро пожаловать в мир Криса Юрича Каменева!" - (описание по версии Кураж-Бамбей)



Качество: DVDRip-AVC
Формат: MKV
Видео кодек: AVC
Аудио кодек: AC3
Видео: MPEG-4 x264, 720x480 (852x480), 16:9, 29.970 fps, 2 100 Kbps, 0.203 bits/(pixel*frame)
Аудио #1: AC-3, 48.0 KHz, 2 channels, 192 Kbps (Кураж-Бамбей)
Аудио #2: AC-3, 48.0 KHz, 2 channels, 192 Kbps (Английский)
Источник: лицензионные 4xDVD R1
Работа с видео и звуком: AtotIK
Перевод субтитров: 01-12 - goodhoopoe1083, 13-22 - notabenoid
s01e01: Everybody Hates the Pilot (September 22, 2005)
s01e02: Everybody Hates Keisha (September 29, 2005)
s01e03: Everybody Hates Basketball (October 6, 2005)
s01e04: Everybody Hates Sausage (October 13, 2005)
s01e05: Everybody Hates Fat Mike (October 20, 2005)
s01e06: Everybody Hates Halloween (October 27, 2005)
s01e07: Everybody Hates the Babysitter (November 3, 2005)
s01e08: Everybody Hates the Laundromat (November 10, 2005)
s01e09: Everybody Hates Food Stamps (November 17, 2005)
s01e10: Everybody Hates Greg (November 24, 2005)
s01e11: Everybody Hates Christmas (December 15, 2005)
s01e12: Everybody Hates a Part Time Job (January 19, 2006)
s01e13: Everybody Hates Picture Day (February 2, 2006)
s01e14: Everybody Hates Valentine's Day (February 9, 2006)
s01e15: Everybody Hates the Lottery (February 16, 2006)
s01e16: Everybody Hates the Gout (March 3, 2006)
s01e17: Everybody Hates Funerals (March 23, 2006)
s01e18: Everybody Hates Corleone (April 13, 2006)
s01e19: Everybody Hates Drew (April 20, 2006)
s01e20: Everybody Hates Playboy (April 27, 2006)
s01e21: Everybody Hates Jail (May 4, 2006)
s01e22: Everybody Hates Father's Day (May 11, 2006)
General
Unique ID : 222407954641151839157004850327377978046 (0xA75236C6D33DF904A1A00B667E1CA2BE)
Complete name : E:\Everybody.Hates.Chris.-.Season.1.2005.DVDRip-AVC\s01e01.Everybody.Hates.The.Pilot.mkv
Format : Matroska
Format version : Version 4 / Version 2
File size : 373 MiB
Duration : 20mn 54s
Overall bit rate : 2 493 Kbps
Encoded date : UTC 2015-05-05 10:21:44
Writing application : mkvmerge v7.7.0 ('Six Voices') 64bit built on Feb 28 2015 23:39:33
Writing library : libebml v1.3.1 + libmatroska v1.4.2
DURATION : 00:20:11.865000000
NUMBER_OF_FRAMES : 334
NUMBER_OF_BYTES : 14337
_STATISTICS_WRITING_APP : mkvmerge v7.7.0 ('Six Voices') 64bit built on Feb 28 2015 23:39:33
_STATISTICS_WRITING_DATE_UTC : 2015-05-05 10:21:44
_STATISTICS_TAGS : BPS DURATION NUMBER_OF_FRAMES NUMBER_OF_BYTES
Video
ID : 1
Format : AVC
Format/Info : Advanced Video Codec
Format profile : High@L4.1
Format settings, CABAC : Yes
Format settings, ReFrames : 11 frames
Codec ID : V_MPEG4/ISO/AVC
Duration : 20mn 54s
Bit rate : 2 100 Kbps
Width : 720 pixels
Height : 480 pixels
Display aspect ratio : 16:9
Original display aspect ratio : 16:9
Frame rate mode : Constant
Frame rate : 29.970 fps
Standard : NTSC
Color space : YUV
Chroma subsampling : 4:2:0
Bit depth : 8 bits
Scan type : Progressive
Bits/(Pixel*Frame) : 0.203
Stream size : 308 MiB (83%)
Title : Video
Writing library : x264 core 128 r2216M 198a7ea
Encoding settings : cabac=1 / ref=12 / deblock=1:-1:-1 / analyse=0x3:0x133 / me=umh / subme=9 / psy=1 / psy_rd=1.00:0.20 / mixed_ref=1 / me_range=24 / chroma_me=1 / trellis=1 / 8x8dct=1 / cqm=0 / deadzone=21,11 / fast_pskip=1 / chroma_qp_offset=-3 / threads=2 / lookahead_threads=1 / sliced_threads=0 / nr=0 / decimate=1 / interlaced=0 / bluray_compat=0 / constrained_intra=0 / bframes=10 / b_pyramid=1 / b_adapt=2 / b_bias=0 / direct=3 / weightb=1 / open_gop=0 / weightp=2 / keyint=290 / keyint_min=29 / scenecut=40 / intra_refresh=0 / rc_lookahead=40 / rc=2pass / mbtree=1 / bitrate=2100 / ratetol=1.0 / qcomp=0.60 / qpmin=10 / qpmax=51 / qpstep=4 / cplxblur=20.0 / qblur=0.5 / ip_ratio=1.40 / aq=1:1.00
Language : English
Default : Yes
Forced : No
DURATION : 00:20:53.986000000
NUMBER_OF_FRAMES : 37582
NUMBER_OF_BYTES : 329122420
_STATISTICS_WRITING_APP : mkvmerge v7.7.0 ('Six Voices') 64bit built on Feb 28 2015 23:39:33
_STATISTICS_WRITING_DATE_UTC : 2015-05-05 10:21:44
_STATISTICS_TAGS : BPS DURATION NUMBER_OF_FRAMES NUMBER_OF_BYTES
Audio #1
ID : 2
Format : AC-3
Format/Info : Audio Coding 3
Mode extension : CM (complete main)
Format settings, Endianness : Big
Codec ID : A_AC3
Duration : 20mn 54s
Bit rate mode : Constant
Bit rate : 192 Kbps
Channel(s) : 2 channels
Channel positions : Front: L R
Sampling rate : 48.0 KHz
Bit depth : 16 bits
Compression mode : Lossy
Stream size : 28.7 MiB (8%)
Title : Kuraj-Bambey
Language : Russian
Default : Yes
Forced : No
Audio #2
ID : 3
Format : AC-3
Format/Info : Audio Coding 3
Format profile : Dolby Digital
Mode extension : CM (complete main)
Format settings, Endianness : Big
Codec ID : A_AC3
Duration : 20mn 54s
Bit rate mode : Constant
Bit rate : 192 Kbps
Channel(s) : 2 channels
Channel positions : Front: L R
Sampling rate : 48.0 KHz
Bit depth : 16 bits
Compression mode : Lossy
Stream size : 28.7 MiB (8%)
Title : Original
Language : English
Default : No
Forced : No
Text #1
ID : 4
Format : UTF-8
Codec ID : S_TEXT/UTF8
Codec ID/Info : UTF-8 Plain Text
Title : Russian
Language : Russian
Default : No
Forced : No
Text #2
ID : 5
Format : UTF-8
Codec ID : S_TEXT/UTF8
Codec ID/Info : UTF-8 Plain Text
Title : Original
Language : English
Default : No
Forced : No
Menu
00:00:00.000 : en:Chapter 01
00:01:19.896 : en:Chapter 02
00:11:59.752 : en:Chapter 03
00:20:26.758 : en:Chapter 04




Скачать Все.ненавидят.Криса.Everybody.Hates.Chris.(Сезон.1.полный).(Джерри.Ливайн.Jerry.Levine).[2005-2006.комедия.DVDRip-AVC].[VO].(Кураж-Бамбей).+.[Original].+.[Sub].torrent без регистрации
Золото ЗОЛОТАЯ РАЗДАЧА! СКАЧАННОЕ НЕ ЗАСЧИТЫВАЕТСЯ! Золото
Дата: Зарегистрирован   [ Тип: внутренний ] Как тут cкачать?
MAGNET ссылка
MAGNET ссылка


Скачать .torrent

41 KB

Статус: проверено DHT
Скачан: торрент - 1725 раз, раздача полностью - 59 раз
Размер: 7,79 GB
Оценка:  5 (Голосов: 1)
Поблагодарили: 0
Поделиться ссылкой на эту раздачу с друзьями:
В контактеFacebookОдноклассникиTwitterLivejournalМой МирLiveinternet
 

 

leon030982

[] 

сериал бомба ag
 
Показать сообщения:    


Вы не можете начинать темы
Вы не можете отвечать на сообщения
Вы не можете редактировать свои сообщения
Вы не можете удалять свои сообщения
Вы не можете голосовать в опросах
Вы не можете прикреплять файлы к сообщениям
Вы можете скачивать файлы