Loading...
Error

Скачать День сурка / Groundhog Day (Харольд Рэмис / Harold Ramis) [1993, фантастика, мелодрама, комедия, HDRip] [Dub] (Ленфильм) торрент без регистрации

 
Статистика раздачи
Размер:  1,45 GB   |    Скачан:  182 раза
Сидов:  2  [  0 KB/s  ]  
 
Автор Сообщение

leon030982

[] 

День сурка / Groundhog Day


Год выпуска: 1993
Страна: США
Жанр: фантастика, мелодрама, комедия
Продолжительность: 01:41:03
Перевод: Профессиональный (дублированный) Ленфильм
Cубтитры: нет

Режиссер: Харольд Рэмис / Harold Ramis

В ролях: Билл Мюррей, Энди МакДауэлл, Крис Эллиот, Стивен Тоболовски, Брайан Дойл-Мюррей, Марита Герати


Телевизионный комментатор Фил Коннорс каждый год приезжает в маленький городок в штате Пенсильвания на празднование Дня сурка. Но на этот раз веселье рискует зайти слишком далеко. Время сыграло с ним злую шутку: оно взяло да и остановилось.
Теперь на календаре Фила чернеет одна и та же дата — 2 февраля, из которой он никак не может выбраться. Неунывающий ведущий пытается извлечь выгоду из своего комичного положения: впереди у него уйма времени и безмятежное предсказуемое будущее.
Отныне с ним не случится ничего плохого… и ничего хорошего. У Фила осталась одна заветная мечта, простая и незамысловатая — 3 февраля…

Сэмпл

Качество видео: HDRip
Формат видео: AVI
Видео кодек: XviD
Аудио кодек: AC3
Видео: 720x384 (1.88:1), 23.976 fps, XviD build 50 ~1852 kbps avg, 0.28 bit/pixel
Аудио: 48 kHz, AC3 Dolby Digital, 2/0 (L,R) ch, ~192.00 kbps avg

Цитата:

Sergunka172
За синхронизацию звуковой дороги и работу со звуком огромная благодарность ale_x2008
Перевод: Дублированный - Ленфильм
В звуковой дорожке есть несколько небольших (по 2-3 сек.) вставок из перевода РТР
General
Complete name : C:\Users\День сурка (Ленфильм).avi
Format : AVI
Format/Info : Audio Video Interleave
File size : 1.45 GiB
Duration : 1h 41mn
Overall bit rate : 2 054 Kbps
Writing application : VirtualDubMod 1.5.10.3 (build 2550/release)
Writing library : VirtualDubMod build 2550/release
Original source form/Name : Movie
Video
ID : 0
Format : MPEG-4 Visual
Format profile : Advanced Simple@L5
Format settings, BVOP : 1
Format settings, QPel : No
Format settings, GMC : No warppoints
Format settings, Matrix : Custom
Codec ID : XVID
Codec ID/Hint : XviD
Duration : 1h 41mn
Bit rate : 1 853 Kbps
Width : 720 pixels
Height : 384 pixels
Display aspect ratio : 1.85:1
Frame rate : 23.976 fps
Color space : YUV
Chroma subsampling : 4:2:0
Bit depth : 8 bits
Scan type : Progressive
Compression mode : Lossy
Bits/(Pixel*Frame) : 0.280
Stream size : 1.31 GiB (90%)
Writing library : XviD 1.2.1 (UTC 2008-12-04)
Audio
ID : 1
Format : AC-3
Format/Info : Audio Coding 3
Mode extension : CM (complete main)
Format settings, Endianness : Big
Codec ID : 2000
Duration : 1h 41mn
Bit rate mode : Constant
Bit rate : 192 Kbps
Channel(s) : 2 channels
Channel positions : Front: L R
Sampling rate : 48.0 KHz
Bit depth : 16 bits
Compression mode : Lossy
Stream size : 139 MiB (9%)
Alignment : Split accross interleaves
Interleave, duration : 42 ms (1.00 video frame)
Interleave, preload duration : 500 ms



Скачать День.сурка.Groundhog.Day.(Харольд.Рэмис.Harold.Ramis).[1993.фантастика.мелодрама.комедия.HDRip].[Dub].(Ленфильм).torrent без регистрации
Золото ЗОЛОТАЯ РАЗДАЧА! СКАЧАННОЕ НЕ ЗАСЧИТЫВАЕТСЯ! Золото
Дата: Зарегистрирован   [ Тип: внутренний ] Как тут cкачать?
MAGNET ссылка
MAGNET ссылка


Скачать .torrent

15 KB

Статус: проверено DHT
Скачан: торрент - 182 раз, раздача полностью - 126 раз
Размер: 1,45 GB
Оценка:  5 (Голосов: 2)
Поблагодарили: 5
Поделиться ссылкой на эту раздачу с друзьями:
В контактеFacebookОдноклассникиTwitterLivejournalМой МирLiveinternet
 

 

leon030982

[] 

Код:

Релиз перезалит. Устранён рассинхрон в некоторых эпизодах фильма.
 

Shara

[] 

Отличнейший фильм!
 

leon030982

[] 

Shara писал(а):

Отличнейший фильм!
Согласен ab как раз только что пересматривал в энный раз
 

ExMuser

[] 

Только за один этот фильм я многое прощаю галивуду.
 
Показать сообщения:    


Вы не можете начинать темы
Вы не можете отвечать на сообщения
Вы не можете редактировать свои сообщения
Вы не можете удалять свои сообщения
Вы не можете голосовать в опросах
Вы не можете прикреплять файлы к сообщениям
Вы можете скачивать файлы