Loading...
Error

Скачать Ловушка для родителей / The Parent Trap (Нэнси Майерс) [1998, мелодрама, комедия, приключения, семейный, WEB-DLRip] [MVO]+[Оригинал] торрент без регистрации

 
Статистика раздачи
Размер:  2,18 GB   |    Скачан:  107 раз
Сидов:  1  [  0 KB/s  ]  
 
Автор Сообщение

Marsianka

[] 

Название: Ловушка для родителей
Оригинальное название: The Parent Trap
Год выпуска: 1998
Жанр: мелодрама, комедия, приключения, семейный
Выпущено: США, Walt Disney Pictures, The Meyers/Shyer Company, Cinema Vehicle Services
Режиссер: Нэнси Майерс
В ролях: Линдси Лохан, Деннис Куэйд, Наташа Ричардсон, Элэйн Хендрикс, Лиза Энн Уолтер, Саймон Кунц, Полли Холлидей, Мэгги Уилер, Ронни Стивенс, Джоэнна Барнс

О фильме: Юная Холли Паркер живет в солнечной Калифорнии с самым замечательным отцом на свете, а ее ровесница Энни Джеймс — в туманном Лондоне с прекрасной любящей матерью. Первая мечтает о маме, без которой ей очень тяжело, а второй так хочется, чтобы у нее был папа. Когда девочки случайно встречаются в летнем лагере, им есть, чем поделиться друг с другом. Но помимо общих горестей между Холли и Энни существует еще одно сходство: они… близнецы! Их родители развелись много лет назад, и девочки решают исправить эту трагическую ошибку. Сестрички начинают действовать: американка возвращается в Лондон, а англичанка в Америку. И ничего не подозревающие родители легко попадают в ловушку…

Качество: WEB-DLRip исходник (WEB-DL 720p.)
Видео: XviD, 1661 Кбит/с, 720x384

Продолжительность: 02:08:14
Перевод: Профессиональный (многоголосый)
Аудио 1: Русский, AC3, 6 ch, 384 Кбит/с | Профессиональный (многоголосый) Видеосервис
Аудио 2: Английский, AC3, 6 ch, 384 Кбит/с | Оригинал

Обработка звука kilih50. Русский перевод получен путём наложения дорожки с переводом на центральный канал оригинальной 6-канальной дорожки.

General
Complete name : G:The Parent Trap 1998 WEB-DLRip 2.18.avi
Format : AVI
Format/Info : Audio Video Interleave
Format profile : OpenDML
File size : 2.18 GiB
Duration : 2h 8mn
Overall bit rate : 2 436 Kbps
Writing application : VirtualDubModRus 1.5.10.2 (build 2542/release)
Writing library : VirtualDubMod build 2542/release

Video
ID : 0
Format : MPEG-4 Visual
Format profile : Advanced Simple@L5
Format settings, BVOP : 2
Format settings, QPel : No
Format settings, GMC : No warppoints
Format settings, Matrix : Default (MPEG)
Codec ID : XVID
Codec ID/Hint : XviD
Duration : 2h 8mn
Bit rate : 1 651 Kbps
Width : 720 pixels
Height : 384 pixels
Display aspect ratio : 1.85:1
Frame rate : 23.976 fps
Color space : YUV
Chroma subsampling : 4:2:0
Bit depth : 8 bits
Scan type : Progressive
Compression mode : Lossy
Bits/(Pixel*Frame) : 0.249
Stream size : 1.48 GiB (68%)
Writing library : XviD 57

Audio #1
ID : 1
Format : AC-3
Format/Info : Audio Coding 3
Mode extension : CM (complete main)
Format settings, Endianness : Big
Codec ID : 2000
Duration : 2h 8mn
Bit rate mode : Constant
Bit rate : 384 Kbps
Channel(s) : 6 channels
Channel positions : Front: L C R, Side: L R, LFE
Sampling rate : 48.0 KHz
Bit depth : 16 bits
Compression mode : Lossy
Stream size : 352 MiB (16%)
Alignment : Split accross interleaves
Interleave, duration : 42 ms (1.00 video frame)
Interleave, preload duration : 500 ms

Audio #2
ID : 2
Format : AC-3
Format/Info : Audio Coding 3
Mode extension : CM (complete main)
Format settings, Endianness : Big
Codec ID : 2000
Duration : 2h 8mn
Bit rate mode : Constant
Bit rate : 384 Kbps
Channel(s) : 6 channels
Channel positions : Front: L C R, Side: L R, LFE
Sampling rate : 48.0 KHz
Bit depth : 16 bits
Compression mode : Lossy
Stream size : 352 MiB (16%)
Alignment : Split accross interleaves
Interleave, duration : 42 ms (1.00 video frame)
Interleave, preload duration : 500 ms
Релиз от:



Скачать Ловушка.для.родителей.The.Parent.Trap.(Нэнси.Майерс).[1998.мелодрама.комедия.приключения.семейный.WEB-DLRip].[MVO]+[Оригинал].torrent без регистрации
Золото ЗОЛОТАЯ РАЗДАЧА! СКАЧАННОЕ НЕ ЗАСЧИТЫВАЕТСЯ! Золото
Дата: Зарегистрирован   [ Тип: внутренний ] Как тут cкачать?
MAGNET ссылка
MAGNET ссылка


Скачать .torrent

12 KB

Статус: проверено DHT
Скачан: торрент - 107 раз, раздача полностью - 56 раз
Размер: 2,18 GB
Оценка:  - (Голосов: 0)
Поблагодарили: 0
Поделиться ссылкой на эту раздачу с друзьями:
В контактеFacebookОдноклассникиTwitterLivejournalМой МирLiveinternet
 

 
Показать сообщения:    


Вы не можете начинать темы
Вы не можете отвечать на сообщения
Вы не можете редактировать свои сообщения
Вы не можете удалять свои сообщения
Вы не можете голосовать в опросах
Вы не можете прикреплять файлы к сообщениям
Вы можете скачивать файлы