Loading...
Error

Скачать В упор / At Close Range (Джеймс Фоули) [1986, триллер, драма, криминал, HDRip-AVC] [MVO]+[DVO]+[AVO]+[Sub] торрент без регистрации

 
Статистика раздачи
Размер:  2,18 GB   |    Скачан:  103 раза
Сидов:  1  [  0 KB/s  ]  
 
Автор Сообщение

Marsianka

[] 

В упор / At Close Range (1986) HDRip-AVC
Производство: США/Hemdale Films
Жанр: триллер, драма, криминал

Режиссер: Джеймс Фоули
Актеры: Шон Пенн, Кристофер Уокен, Мэри Стюарт Мастерсон, Крис Пенн, Милли Перкинс, Айлин Райан, Трейси Уолтер, Р.Д. Колл, Дэвид Стрэтэйрн, Дж. К. Куин

Описание:
Отец-преступник вовлекает своего сына в безумную вакханалию жестоких преступлений и убийств. За ними охотятся полиция и ФБР.
Весь мир против них, и вскоре они сами становятся смертельными врагами. Кто из них останется в живых? Будет ли ему нужна эта жизнь?



Релиз от: FAGOT100 (NNM-CLUB)
Продолжительность: 01:55:45
Качество видео: HDRip-AVC (Исх. BDRip 1080p)

Видео: AVC, 1024x432 (2.35:1), 23.976 fps, 2 122 Kbps (0.200 bit/pixel)
Перевод: Профессиональный (многоголосый, закадровый), профессиональный (двухголосый, закадровый), авторский (одноголосый, закадровый) Ю.Сербин
Субтитры: Английский
Аудио #1: AC-3, 48.0 KHz, 2 ch, 192 Kbps, CBR (Russian) - многоголосый
Аудио #2: AC-3, 48.0 KHz, 2 ch, 192 Kbps, CBR (Russian) - двухголосый
Аудио #3: AC-3, 48.0 KHz, 2 ch, 192 Kbps, CBR (Russian) - авторский

Формат : Matroska
Версия формата : Version 2
Размер файла : 2,18 Гбайт
Продолжительность : 1 ч. 55 м.
Общий поток : 2698 Кбит/сек
Дата кодирования : UTC 2015-09-16 21:33:11
Программа кодирования : mkvmerge v5.3.0 ('I could have danced') built on Feb 9 2012 10:38:07
Библиотека кодирования : libebml v1.2.3 + libmatroska v1.3.0
Attachment : Yes

Видео
Идентификатор : 1
Формат : AVC
Формат/Информация : Advanced Video Codec
Профиль формата : High@L4.1
Параметр CABAC формата : Да
Параметр ReFrames формата : 8 кадров
Идентификатор кодека : V_MPEG4/ISO/AVC
Продолжительность : 1 ч. 55 м.
Битрейт : 2122 Кбит/сек
Ширина : 1024 пикселя
Высота : 432 пикселя
Соотношение сторон : 2,40:1
Режим частоты кадров : Постоянный
Частота кадров : 23,976 кадра/сек
Цветовое пространство : YUV
Субдискретизация насыщенности : 4:2:0
Битовая глубина : 8 бит
Тип развёртки : Прогрессивная
Бит/(Пиксели*Кадры) : 0.200
Размер потока : 1,67 Гбайт (77%)
Библиотека кодирования : x264 core 146 r2538 121396c
Настройки программы : cabac=1 / ref=8 / deblock=1:-1:-1 / analyse=0x3:0x133 / me=umh / subme=10 / psy=1 / psy_rd=1.00:0.00 / mixed_ref=1 / me_range=32 / chroma_me=1 / trellis=2 / 8x8dct=1 / cqm=0 / deadzone=21,11 / fast_pskip=0 / chroma_qp_offset=-2 / threads=12 / lookahead_threads=1 / sliced_threads=0 / nr=0 / decimate=0 / interlaced=0 / bluray_compat=0 / constrained_intra=0 / bframes=6 / b_pyramid=2 / b_adapt=2 / b_bias=0 / direct=3 / weightb=1 / open_gop=0 / weightp=2 / keyint=240 / keyint_min=23 / scenecut=40 / intra_refresh=0 / rc=2pass / mbtree=0 / bitrate=2122 / ratetol=1.0 / qcomp=0.60 / qpmin=0 / qpmax=69 / qpstep=4 / cplxblur=20.0 / qblur=0.5 / ip_ratio=1.40 / pb_ratio=1.30 / aq=1:1.00
Язык : English
Default : Да
Forced : Нет

Аудио #1
Идентификатор : 2
Формат : AC-3
Формат/Информация : Audio Coding 3
Расширение режима : CM (complete main)
Параметр Endianness формата : Big
Идентификатор кодека : A_AC3
Продолжительность : 1 ч. 55 м.
Вид битрейта : Постоянный
Битрейт : 192 Кбит/сек
Каналы : 2 канала
Расположение каналов : Front: L R
Частота : 48,0 КГц
Битовая глубина : 16 бит
Метод сжатия : С потерями
Задержка видео : 1 с. 300 мс.
Размер потока : 159 Мбайт (7%)
Заголовок : MVO
Язык : Russian
Default : Да
Forced : Нет

Аудио #2
Идентификатор : 3
Формат : AC-3
Формат/Информация : Audio Coding 3
Расширение режима : CM (complete main)
Параметр Endianness формата : Big
Идентификатор кодека : A_AC3
Продолжительность : 1 ч. 55 м.
Вид битрейта : Постоянный
Битрейт : 192 Кбит/сек
Каналы : 2 канала
Расположение каналов : Front: L R
Частота : 48,0 КГц
Битовая глубина : 16 бит
Метод сжатия : С потерями
Задержка видео : 1 с. 300 мс.
Размер потока : 159 Мбайт (7%)
Заголовок : DVO НТВ+
Язык : Russian
Default : Нет
Forced : Нет

Аудио #3
Идентификатор : 4
Формат : AC-3
Формат/Информация : Audio Coding 3
Расширение режима : CM (complete main)
Параметр Endianness формата : Big
Идентификатор кодека : A_AC3
Продолжительность : 1 ч. 55 м.
Вид битрейта : Постоянный
Битрейт : 192 Кбит/сек
Каналы : 2 канала
Расположение каналов : Front: L R
Частота : 48,0 КГц
Битовая глубина : 16 бит
Метод сжатия : С потерями
Задержка видео : 1 с. 300 мс.
Размер потока : 159 Мбайт (7%)
Заголовок : AVO Сербин
Язык : Russian
Default : Нет
Forced : Нет

Текст
Идентификатор : 5
Формат : UTF-8
Идентификатор кодека : S_TEXT/UTF8
Идентификатор кодека/Информация : UTF-8 Plain Text
Язык : English
Default : Нет
Forced : Нет



Скачать В.упор.At.Close.Range.(Джеймс.Фоули).[1986.триллер.драма.криминал.HDRip-AVC].[MVO]+[DVO]+[AVO]+[Sub].torrent без регистрации
Золото ЗОЛОТАЯ РАЗДАЧА! СКАЧАННОЕ НЕ ЗАСЧИТЫВАЕТСЯ! Золото
Дата: Зарегистрирован   [ Тип: внутренний ] Как тут cкачать?
MAGNET ссылка
MAGNET ссылка


Скачать .torrent

12 KB

Статус: проверено DHT
Скачан: торрент - 103 раз, раздача полностью - 7 раз
Размер: 2,18 GB
Оценка:  - (Голосов: 0)
Поблагодарили: 1
Поделиться ссылкой на эту раздачу с друзьями:
В контактеFacebookОдноклассникиTwitterLivejournalМой МирLiveinternet
 

 
Показать сообщения:    


Вы не можете начинать темы
Вы не можете отвечать на сообщения
Вы не можете редактировать свои сообщения
Вы не можете удалять свои сообщения
Вы не можете голосовать в опросах
Вы не можете прикреплять файлы к сообщениям
Вы можете скачивать файлы