Loading...
Error

Скачать Багровый цвет снегопада (Владимир Мотыль) [2009, Драма, мелодрама, DVDRip] торрент без регистрации

 
Статистика раздачи
Размер:  748 MB   |    Скачан:  117 раз

Полного источника не было: 3 месяца 19 дней

 
Автор Сообщение

Шкипер

[] 


Багровый цвет снегопада


Год выпуска: 2009
Выпущено: Россия (Vladimir Motyl Studio)
Жанр: Драма, мелодрама
Продолжительность: 02:01:26
Перевод: Не требуется
Субтитры: Отсутствуют

Режиссер: Владимир Мотыль

В ролях: Александр Цуркан, Артем Артемьев, Александр Балуев, Анатолий Белый, Евгений Вальц, Александр Василевский, Илья Жданников, Маргарита Иванова, Сергей Кагаков...

Описание: Действие фильма происходит во время Первой мировой войны. Юная киевлянка Ксения Герстель, дочь миллионера-промышленника, остается сиротой — ее отец был убит во время беспорядков, а вскоре Ксения узнает, что на фронте погиб ее жених Саша. Отчаявшись, она поступила в «Красный крест» и ушла сестрой милосердия на передовую, где встретила новую любовь — генерал-майора Ростислава Баторского, человека, который спас ей жизнь и фактически заменил отца, поселив ее после демобилизации в своей квартире в Петрограде.
Одинокий пятидесятитрехлетний генерал влюбляется в Ксению, окружает ее заботой и вниманием и, в конце концов, они становятся мужем и женой. После бесконечных потерь и разочарований, выпавших на ее долю, Ксения обретает веру в будущее, мечтает о большой счастливой семье, о детях. Но революция 1917 года повергает Россию в пучину кровавого хаоса, и надеждам Ксении не суждено сбыться…...







Качество: DVDRip
Формат: AVI
Видео кодек: XviD
Аудио кодек: MP3
Видео: 624x352 (1.77:1), 25 fps, XviD build 73 ~723 kbps avg, 0.13 bit/pixel
Аудио: 48 kHz, MPEG Layer 3, 2 ch, ~128.00 kbps avg

General
Complete name : D:Изготовление риповBagrovyi.tsvet.snegopada.2009.O.DVDrip ot shkiper.avi
Format : AVI
Format/Info : Audio Video Interleave
File size : 748 MiB
Duration : 2h 1mn
Overall bit rate : 861 Kbps
Writing application : VirtualDubMod 1.5.10.3 | www.virtualdub-fr.org || (build 2550/release)
Writing library : VirtualDubMod build 2550/release

Video
ID : 0
Format : MPEG-4 Visual
Format profile : Advanced Simple@L5
Format settings, BVOP : 1
Format settings, QPel : No
Format settings, GMC : No warppoints
Format settings, Matrix : Custom
Codec ID : XVID
Codec ID/Hint : XviD
Duration : 2h 1mn
Bit rate : 723 Kbps
Width : 624 pixels
Height : 352 pixels
Display aspect ratio : 16:9
Frame rate : 25.000 fps
Color space : YUV
Chroma subsampling : 4:2:0
Bit depth : 8 bits
Scan type : Progressive
Compression mode : Lossy
Bits/(Pixel*Frame) : 0.132
Stream size : 628 MiB (84%)
Writing library : XviD 73

Audio
ID : 1
Format : MPEG Audio
Format version : Version 1
Format profile : Layer 3
Mode : Joint stereo
Mode extension : MS Stereo
Codec ID : 55
Codec ID/Hint : MP3
Duration : 2h 1mn
Bit rate mode : Constant
Bit rate : 128 Kbps
Channel(s) : 2 channels
Sampling rate : 48.0 KHz
Compression mode : Lossy
Stream size : 111 MiB (15%)
Alignment : Aligned on interleaves
Interleave, duration : 40 ms (1.00 video frame)
Interleave, preload duration : 504 ms
Writing library : LAME3.99r
Encoding settings : -m j -V 4 -q 2 -lowpass 17 -b 128





Скачать Багровый.цвет.снегопада.(Владимир.Мотыль).[2009.Драма.мелодрама.DVDRip].torrent без регистрации
Золото ЗОЛОТАЯ РАЗДАЧА! СКАЧАННОЕ НЕ ЗАСЧИТЫВАЕТСЯ! Золото
Дата: Зарегистрирован   [ Тип: внутренний ] Как тут cкачать?
MAGNET ссылка
MAGNET ссылка


Скачать .torrent

15 KB

Статус: проверено
Скачан: торрент - 117 раз, раздача полностью - 12 раз
Размер: 748 MB
Оценка:  3,5 (Голосов: 2)
Поблагодарили: 1
Поделиться ссылкой на эту раздачу с друзьями:
В контактеFacebookОдноклассникиTwitterLivejournalМой МирLiveinternet
 

 
Показать сообщения:    


Вы не можете начинать темы
Вы не можете отвечать на сообщения
Вы не можете редактировать свои сообщения
Вы не можете удалять свои сообщения
Вы не можете голосовать в опросах
Вы не можете прикреплять файлы к сообщениям
Вы можете скачивать файлы