Loading...
Error

Скачать Fallout: Ядерный перекур / Fallout: Nuka Break (сезон 01) (Винсент Таленти) [2011, фантастика, комедия, WEBRip] [1080p] [MVO]+[VO]+[Eng] торрент без регистрации

Статистика раздачи
Размер:  1,28 GB   |    Скачан:  124 раза
Сидов:  1  [  0 KB/s  ]  
 
 
 
Автор Сообщение

МихаНЕзатор

[] 

Информация о фильме
Название: Fallout: Ядерный перекур
Оригинальное название: Fallout: Nuka Break
Год выхода: 2011
Жанр: фантастика, боевик, приключения, веб-сериал
Режиссер: Винсент Таленти

В ролях: Зак Финфрок, Тайби Дискин, Аарон Д. Джилз, Мишель Спечт, Даг Джонс, Камерон Дискин, Роберт Хардин, Чад Виллелла, Николас Акоста, Стивен Денглер

О фильме: Мини-сериал «Фоллаут – Ядерный перекур» снят по мотивам легендарной и невероятно популярной игры ее же фанатами. Действия фильма происходят в далеком 2077 году, через 100 лет после ужасной катастрофы. В результате утечки бактериологического оружия, созданного во время мировой войны, развязанной Китаем и США, вирус ВРЭ присутствует в атмосфере спустя много десятков лет. Земля уже не похожа на цветущую зеленую планету. Она превратилась в зловещий мир, наполненный бандами злодеев, а уцелевшим людям нужно очень постараться, чтобы выжить в нем.



Страна: США
Продолжительность: 6 x ~ 00:09:00
Перевод:
1.Любительский многоголосный закадровый [neon-game]
2.Любительский одноголосный закадровый [Mr.KarllsOnCHIck]

Файл
Кодек: H.264
Качество: WEBRip 1080p
Видео: AVC, 1920x1080 (16:9), 23.976 fps ~ 2600 Kbps
Звук:
AAC, 44.1 KHz 2 ch ~ 132 Kb/s (русский)
AAC, 44.1 KHz 2 ch ~ 152 Kb/s (английский)
Субтитры: отсутствуют

Релиз от: cemehbl4

АНОНСЫ ПОПУЛЯРНЫХ РАЗДАЧ

Общее
Полное имя : Q:TorFЯдерный перекур'Fallout- Nuka Break' the series - S01E01 [MVO+VO+ENG].mp4
Формат : MPEG-4
Профиль формата : Base Media
Идентификатор кодека : isom
Размер файла : 206 Мбайт
Продолжительность : 9 м. 2 с.
Режим общего битрейта : Переменный
Общий поток : 3188 Кбит/сек
Дата кодирования : UTC 2012-05-25 11:21:43
Дата пометки : UTC 2012-05-25 11:21:43
Программа кодирования : Yamb 2.1.0.0 [http://yamb.unite-video.com]

Видео
Идентификатор : 1
Формат : AVC
Формат/Информация : Advanced Video Codec
Профиль формата : High@L4.0
Параметр CABAC формата : Да
Параметр ReFrames формата : 1 кадр
Параметр GOP формата : M=1, N=24
Идентификатор кодека : avc1
Идентификатор кодека/Информация : Advanced Video Coding
Продолжительность : 9 м. 2 с.
Битрейт : 2765 Кбит/сек
Максимальный битрейт : 11,0 Мбит/сек
Ширина : 1920 пикселей
Высота : 1080 пикселей
Соотношение сторон : 16:9
Режим частоты кадров : Постоянный
Частота кадров : 23,976 кадра/сек
Цветовое пространство : YUV
Субдискретизация насыщенности : 4:2:0
Битовая глубина : 8 бит
Тип развёртки : Прогрессивная
Бит/(Пиксели*Кадры) : 0.056
Размер потока : 179 Мбайт (87%)
Дата кодирования : UTC 2012-05-25 11:21:43
Дата пометки : UTC 2012-05-25 11:22:02

Аудио #1
Идентификатор : 2
Формат : AAC
Формат/Информация : Advanced Audio Codec
Профиль формата : LC
Идентификатор кодека : 40
Продолжительность : 9 м. 2 с.
Вид битрейта : Переменный
Битрейт : 132 Кбит/сек
Максимальный битрейт : 183 Кбит/сек
Каналы : 2 канала
Расположение каналов : Front: L R
Частота : 44,1 КГц
Метод сжатия : С потерями
Размер потока : 8,54 Мбайт (4%)
Заголовок : MVO
Язык : Russian
Дата кодирования : UTC 2012-05-25 11:21:58
Дата пометки : UTC 2012-05-25 11:22:02

Аудио #2
Идентификатор : 3
Формат : AAC
Формат/Информация : Advanced Audio Codec
Профиль формата : LC
Идентификатор кодека : 40
Продолжительность : 9 м. 2 с.
Вид битрейта : Переменный
Битрейт : 132 Кбит/сек
Максимальный битрейт : 185 Кбит/сек
Каналы : 2 канала
Расположение каналов : Front: L R
Частота : 44,1 КГц
Метод сжатия : С потерями
Размер потока : 8,66 Мбайт (4%)
Заголовок : VO
Язык : Russian
Дата кодирования : UTC 2012-05-25 11:21:59
Дата пометки : UTC 2012-05-25 11:22:02

Аудио #3
Идентификатор : 4
Формат : AAC
Формат/Информация : Advanced Audio Codec
Профиль формата : LC
Идентификатор кодека : 40
Продолжительность : 9 м. 2 с.
Вид битрейта : Переменный
Битрейт : 152 Кбит/сек
Максимальный битрейт : 201 Кбит/сек
Каналы : 2 канала
Расположение каналов : Front: L R
Частота : 44,1 КГц
Метод сжатия : С потерями
Размер потока : 9,82 Мбайт (5%)
Язык : English
Дата кодирования : UTC 2012-05-25 11:22:01
Дата пометки : UTC 2012-05-25 11:22:02



Скачать Fallout.Ядерный.перекур.Fallout.Nuka.Break.(сезон.01).(Винсент.Таленти).[2011.фантастика.комедия.WEBRip].[1080p].[MVO]+[VO]+[Eng].torrent без регистрации
Золото ЗОЛОТАЯ РАЗДАЧА! СКАЧАННОЕ НЕ ЗАСЧИТЫВАЕТСЯ! Золото
Дата: Зарегистрирован   [ Тип: внутренний ] Как тут cкачать?
MAGNET ссылка
MAGNET ссылка


Скачать .torrent

14 KB

Статус: проверено DHT
Скачан: торрент - 124 раз, раздача полностью - 16 раз
Размер: 1,28 GB
Оценка:  - (Голосов: 0)
Поблагодарили: 1
Поделиться ссылкой на эту раздачу с друзьями:
В контактеFacebookОдноклассникиTwitterLivejournalМой МирLiveinternet
 

 
Показать сообщения:    


Вы не можете начинать темы
Вы не можете отвечать на сообщения
Вы не можете редактировать свои сообщения
Вы не можете удалять свои сообщения
Вы не можете голосовать в опросах
Вы не можете прикреплять файлы к сообщениям
Вы можете скачивать файлы