Loading...
Error

Скачать Таинственный остров / Mysterious Island (01-43 из 44) (Крис Бэйли и др.) [1995, фантастика, приключения, DVB] торрент без регистрации

 
Статистика раздачи
Размер:  28,11 GB   |    Скачан:  98 раз
Сидов:  1  [  0 KB/s  ]  
 
Автор Сообщение

МихаНЕзатор

[] 

Информация о фильме
Название: Таинственный остров
Оригинальное название: Mysterious Island
Год выхода: 1995
Жанр: фантастика, приключения
Режиссер: Крис Бэйли, Уильям Фрюит, Питер Шарп

В ролях: Алан Скарф, Колетт Стивенсон, Стивен Ловатт, Гордон Майкл Вулветт,
Джон Бах, С. Дэвид Джонсон, Энди Маршалл, Фрэнк Уиттен, Кевин Уилсон, Глайнис Параха

Описание: Экранизация книги Жюль Верна Таинственный Остров.
США 1865 год, война между Севером и Югом. Командир отряда северян капитан Сайрус Хардинг, попав в засаду, оказывается в плену у южан. Вместе с военным корреспондентом Гидеоном Спилетом, семьей Пенкрофтов и чернокожим солдатом Нэбом Брауном капитан Хардинг бежит из плена на воздушном шаре. Куда унесет беглецов разыгравшаяся буря?..



Страна: Канада, Новая Зеландия
Продолжительность: 43х ~ 22 мин
Перевод: Профессиональный (многоголосый закадровый)
Доп. информация: запись с 8 канала, на тв серии раздели пополам, получилось 44 серии.
последней 44 серии в раздачи нет!

Файл
Формат: TS
Качество: DVB
Видео: 720x576@768x576, 4:3, MPEG2, 25 fps, 4301 kbps
Аудио: MP2, 192 Кбит/сек, 2 канала, 48,0 КГц
Общее
Идентификатор : 1 (0x1)
Полное имя : C:mys isl1x01 - genesis.ts
Формат : MPEG-TS
Размер файла : 778 Мбайт
Продолжительность : 23 м.
Режим общего битрейта : Переменный
Общий поток : 4728 Кбит/сек

Видео
Идентификатор : 301 (0x12D)
Идентификатор меню : 1 (0x1)
Формат : MPEG Video
Версия формата : Version 2
Профиль формата : Main@Main
Параметр BVOP формата : Да
Параметр матрицы формата : Выборочная
Параметр GOP формата : Variable
Идентификатор кодека : 2
Продолжительность : 23 м.
Вид битрейта : Переменный
Битрейт : 4301 Кбит/сек
Максимальный битрейт : 15,0 Мбит/сек
Ширина : 720 пикселей
Высота : 576 пикселей
Соотношение сторон : 4:3
Частота кадров : 25,000 кадров/сек
Стандарт вещания : PAL
Цветовое пространство : YUV
Субдискретизация насыщенности : 4:2:0
Битовая глубина : 8 бит
Метод сжатия : С потерями
Бит/(Пиксели*Кадры) : 0.415
Временной код первого кадра : 00:00:00:00
Оригинал временного кода : Group of pictures header
Размер потока : 708 Мбайт (91%)

Аудио
Идентификатор : 401 (0x191)
Идентификатор меню : 1 (0x1)
Формат : MPEG Audio
Версия формата : Version 1
Профиль формата : Layer 2
Идентификатор кодека : 3
Продолжительность : 23 м.
Вид битрейта : Постоянный
Битрейт : 192 Кбит/сек
Каналы : 2 канала
Частота : 48,0 КГц
Метод сжатия : С потерями
Задержка видео : 8 мс.
Размер потока : 31,6 Мбайт (4%)
Язык : Russian



Скачать Таинственный.остров.Mysterious.Island.(01-43.из.44).(Крис.Бэйли.и.др.).[1995.фантастика.приключения.DVB].torrent без регистрации
Золото ЗОЛОТАЯ РАЗДАЧА! СКАЧАННОЕ НЕ ЗАСЧИТЫВАЕТСЯ! Золото
Дата: Зарегистрирован   [ Тип: внутренний ] Как тут cкачать?
MAGNET ссылка
MAGNET ссылка


Скачать .torrent

73 KB

Статус: проверено DHT
Скачан: торрент - 98 раз, раздача полностью - 3 раз
Размер: 28,11 GB
Оценка:  - (Голосов: 0)
Поблагодарили: 0
Поделиться ссылкой на эту раздачу с друзьями:
В контактеFacebookОдноклассникиTwitterLivejournalМой МирLiveinternet
 

 
Показать сообщения:    


Вы не можете начинать темы
Вы не можете отвечать на сообщения
Вы не можете редактировать свои сообщения
Вы не можете удалять свои сообщения
Вы не можете голосовать в опросах
Вы не можете прикреплять файлы к сообщениям
Вы можете скачивать файлы