Loading...
Error

Скачать Как рыбка без воды / Like a fish out of water (Эрве Адмар) [1999, триллер, комедия, криминал, DVDRip] [MVO] торрент без регистрации

 
Статистика раздачи
Размер:  1,46 GB   |    Скачан:  80 раз
Сидов:  1  [  0 KB/s  ]  
 
Автор Сообщение

Marsianka

[] 

Информация о фильме
Название: Как рыбка без воды
Оригинальное название: Like a fish out of water
Год выхода: 1999
Жанр: триллер, комедия, криминал
Режиссер: Эрве Адмар
В ролях: Мишель Мюллер (II), Моника Беллуччи, Чеки Карио, Доминик Пинон, Мехмет Улусой, Жозе Гарсиа, Беатрис Пальм, Карин Нурис, Оливье Эрве, Жерар Измаэль, Надин Верон, Андре Пусс, Зирек, Филипп Хайм, Винс Кастелло, Лемми Константин, Жан-Клод Буйон, Жан-Люк Орвэ, Изабелль Дюваль

О фильме:
Cын владельца крупного ресторана, богатый аквариумист Дезире имеет в своей коллекции две редкие и очень ценные рыбки, с которыми он никогда не расстается и повсюду возит с собой в специальном аквариуме. О существовании столь ценных экземпляров прознали мошенники - роковая красотка и два мафиози, мечтающие разбогатеть. Дезире оказывается втянутым в тщательно продуманный преступный сценарий красотки Мервиль и ее друзей. Их цель — обобрать богатого коллекционера. Но Дезире начинает подозревать подвох, и события принимают совершенно неожиданный оборот...



Страна: Франция
Продолжительность: 01:22:33
Перевод: Профессиональный (многоголосый, закадровый)

Файл
Кодек: XviD
Качество: DVDRip
Видео: 720x304, 25,000 fps, 2071 kbps
Звук: AC3, 6 ch, 448.0 kbps, 48.0 kHz
Общее
Полное имя : Like.a.fish.out.of.water.1999.DVDRip.avi
Формат : AVI
Формат/Информация : Audio Video Interleave
Размер файла : 1,46 Гбайт
Продолжительность : 1 ч. 22 м.
Общий поток : 2528 Кбит/сек
Программа кодирования : VirtualDubMod 1.5.10.3 | www.virtualdub-fr.org || (build 2550/release)
Библиотека кодирования : VirtualDubMod build 2550/release

Видео
Идентификатор : 0
Формат : MPEG-4 Visual
Профиль формата : Advanced Simple@L5
Параметр BVOP формата : 1
Параметр QPel формата : Нет
Параметр GMC формата : Без точки перехода
Параметр матрицы формата : Выборочная
Идентификатор кодека : XVID
Идентификатор кодека/Подсказка : XviD
Продолжительность : 1 ч. 22 м.
Битрейт : 2071 Кбит/сек
Ширина : 720 пикс.
Высота : 304 пикс.
Соотношение сторон : 2,35:1
Частота кадров : 25,000 кадр/сек
Цветовое пространство : YUV
Подвыборка цветности : 4:2:0
Битовая глубина : 8 бит
Тип развёртки : Прогрессивная
Метод сжатия : С потерями
Бит/(Пиксели*Кадры) : 0.378
Размер потока : 1,19 Гбайт (82%)
Библиотека кодирования : XviD 73

Аудио
Идентификатор : 1
Формат : AC-3
Формат/Информация : Audio Coding 3
Расширение режима : CM (complete main)
Идентификатор кодека : 2000
Продолжительность : 1 ч. 22 м.
Вид битрейта : Постоянный
Битрейт : 448 Кбит/сек
Канал(ы) : 6 канала(ов)
Расположение каналов : Front: L C R, Side: L R, LFE
Частота : 48,0 КГц
Битовая глубина : 16 бит
Метод сжатия : С потерями
Размер потока : 265 Мбайт (18%)
Выравнивание : Разделение по промежуткам
Продолжительность промежутка : 40 мс. (1,00 видеокадр)
Время предзагрузки промежутка : 500 ms
Релиз от: Leon-masl



Скачать Как.рыбка.без.воды.Like.a.fish.out.of.water.(Эрве.Адмар).[1999.триллер.комедия.криминал.DVDRip].[MVO].torrent без регистрации
Золото ЗОЛОТАЯ РАЗДАЧА! СКАЧАННОЕ НЕ ЗАСЧИТЫВАЕТСЯ! Золото
Дата: Зарегистрирован   [ Тип: внутренний ] Как тут cкачать?
MAGNET ссылка
MAGNET ссылка


Скачать .torrent

15 KB

Статус: проверено DHT
Скачан: торрент - 80 раз, раздача полностью - 10 раз
Размер: 1,46 GB
Оценка:  - (Голосов: 0)
Поблагодарили: 1
Поделиться ссылкой на эту раздачу с друзьями:
В контактеFacebookОдноклассникиTwitterLivejournalМой МирLiveinternet
 

 
Показать сообщения:    


Вы не можете начинать темы
Вы не можете отвечать на сообщения
Вы не можете редактировать свои сообщения
Вы не можете удалять свои сообщения
Вы не можете голосовать в опросах
Вы не можете прикреплять файлы к сообщениям
Вы можете скачивать файлы