Loading...
Error

Скачать Крутые Стволы / Mean Guns (Альберт Пьюн) [1997, криминал, боевик, HDRip] [DVO] торрент без регистрации

 
Статистика раздачи
Размер:  1,46 GB   |    Скачан:  79 раз
Сидов:  1  [  0 KB/s  ]  
 
Автор Сообщение

Marsianka

[] 

Информация о фильме
Название: Крутые Стволы
Оригинальное название: Mean Guns
Год выхода: 1997
Жанр: криминал, боевик
Режиссер: Альберт Пьюн / Albert Pyun
В ролях: Кристофер Ламберт, Айс-Ти, Майкл Холси, Кимберли Уоррен, Тина Котэ, Юджи Окумото, Том Мэтьюз, Хантер Доути, Дебора Ван Валкенберг

О фильме:
В только что отстроенной тюрьме некий Мун собирает самых крутых боевиков синдиката и объявляет правила игры, отказаться от которых невозможно. Трое оставшихся в живых должны забрать приз в 10 млн. долларов.
Игра начинается. В общем сражении образуются две группы, из которых выделяется одна - с политическим профессиональным убийцей, его бывшим боссом, очень крутой блондинкой и случайно попавшей в эту историю журналисткой.



Страна: США
Студия: Filmwerks
Продолжительность: 01:50:21
Перевод: Профессиональный (двухголосый закадровый) Twister

Файл
Кодек: XviD
Качество: HDRip
Видео: 704x400, 23,976 fps, 1695 kbps
Звук: AC3, 2 ch, 192.0 kbps, 48kHz
Общее
Полное имя : Mean.Guns.1997.HDRip.avi
Формат : AVI
Формат/Информация : Audio Video Interleave
Размер файла : 1,46 Гбайт
Продолжительность : 1 ч. 50 м.
Общий поток : 1896 Кбит/сек
Программа кодирования : VirtualDubMod 1.5.10.2 (build 2542/release)
Библиотека кодирования : VirtualDubMod build 2542/release

Видео
Идентификатор : 0
Формат : MPEG-4 Visual
Профиль формата : Advanced Simple@L5
Параметр BVOP формата : 1
Параметр QPel формата : Нет
Параметр GMC формата : Без точки перехода
Параметр матрицы формата : Выборочная
Идентификатор кодека : XVID
Идентификатор кодека/Подсказка : XviD
Продолжительность : 1 ч. 50 м.
Битрейт : 1695 Кбит/сек
Ширина : 704 пикс.
Высота : 400 пикс.
Соотношение сторон : 16:9
Частота кадров : 23,976 кадр/сек
Цветовое пространство : YUV
Подвыборка цветности : 4:2:0
Битовая глубина : 8 бит
Тип развёртки : Прогрессивная
Метод сжатия : С потерями
Бит/(Пиксели*Кадры) : 0.251
Размер потока : 1,31 Гбайт (89%)
Библиотека кодирования : XviD 73

Аудио
Идентификатор : 1
Формат : AC-3
Формат/Информация : Audio Coding 3
Расширение режима : CM (complete main)
Идентификатор кодека : 2000
Продолжительность : 1 ч. 50 м.
Вид битрейта : Постоянный
Битрейт : 192 Кбит/сек
Канал(ы) : 2 канала(ов)
Расположение каналов : Front: L R
Частота : 48,0 КГц
Битовая глубина : 16 бит
Метод сжатия : С потерями
Размер потока : 151 Мбайт (10%)
Выравнивание : Разделение по промежуткам
Продолжительность промежутка : 42 мс. (1,00 видеокадр)
Время предзагрузки промежутка : 500 ms
Релиз от: Leon-masl



Скачать Крутые.Стволы.Mean.Guns.(Альберт.Пьюн).[1997.криминал.боевик.HDRip].[DVO].torrent без регистрации
Золото ЗОЛОТАЯ РАЗДАЧА! СКАЧАННОЕ НЕ ЗАСЧИТЫВАЕТСЯ! Золото
Дата: Зарегистрирован   [ Тип: внутренний ] Как тут cкачать?
MAGNET ссылка
MAGNET ссылка


Скачать .torrent

16 KB

Статус: проверено DHT
Скачан: торрент - 79 раз, раздача полностью - 11 раз
Размер: 1,46 GB
Оценка:  - (Голосов: 0)
Поблагодарили: 0
Поделиться ссылкой на эту раздачу с друзьями:
В контактеFacebookОдноклассникиTwitterLivejournalМой МирLiveinternet
 

 
Показать сообщения:    


Вы не можете начинать темы
Вы не можете отвечать на сообщения
Вы не можете редактировать свои сообщения
Вы не можете удалять свои сообщения
Вы не можете голосовать в опросах
Вы не можете прикреплять файлы к сообщениям
Вы можете скачивать файлы