Loading...
Error

Скачать Need for Speed: Жажда скорости / Need for Speed (Скотт Во / Scott Waugh) [2014, боевик, триллер, драма, криминал, BDRip][1080p][DUB][R.G. GoldenShara] торрент без регистрации

Страницы:  1, 2, 3  След.

Статистика раздачи
Размер:  4,36 GB   |    Скачан:  273 раза

Полного источника не было: 2 дня 17 часов

 
 
 
Автор Сообщение

Magnetto83

[] 

Need for Speed: Жажда скорости / Need for Speed



Год выпуска: 2014
Выпущено: США, Филиппины, Ирландия, Великобритания
Жанр: боевик, триллер, драма, криминал
Продолжительность: 02:10:43
Перевод: Русский профессиональный (полное дублирование)| BD EUR |
Субтитры: Русские (Форс.+Полные), Английские (Full)
Навигация по главам: Сохранены оригинальные главы как на Blu-ray

Слоган: «Тормоза придумал трус»

Режиссер: Скотт Во

В ролях: Аарон Пол,Доминик Купер, Имоджен Путс, Дакота Джонсон,Майкл Китон, Рамон Родригес, Ник Чинланд, Скотт Мескади, Рами Малек, Харрисон Гилбертсон

Описание: История Тоби Маршалла, гениального автомеханика, чьей единственной отдушиной является участие в подпольных гонках. Чтобы сохранить семейную мастерскую, Тоби вынужден взять в партнеры богатого и заносчивого бывшего гонщика IndyCar Дино Брюстера. Когда дела Тоби наконец-то начинают идти в гору, Дино подставляет партнера, и Тоби обвиняют в преступлении, которого он не совершал. Спустя два года Тоби выходит из тюрьмы с мыслью о мести. Чтобы достичь своей цели, ему придется совершить невозможное и доказать, что даже в мире броских суперкаров самый невзрачный гонщик может финишировать первым.



Возраст: 16+ (зрителям, достигшим 16 лет. запрещено для детей)
Рейтинг MPAA: PG-13 (детям до 13 лет просмотр нежелателен)

Качество: BDRip 1080p
Формат: MKV
Видео кодек: H.264
Аудио кодек: AC3
Видео: 1920x804 (2.40:1), 5315 Кбит/с, 23.976 fps
Аудио: Русский Dolby Digital 5.1 (448 Кбит/с)


x264 [info]: frame I:1312 Avg QP:17.76 size:188517
x264 [info]: frame P:49771 Avg QP:20.55 size: 40897
x264 [info]: frame B:136952 Avg QP:22.08 size: 14320



General
Complete name : Жажда Cкорости 2014 BDRip Dub Rus 1080p.mkv
Format : Matroska
Format version : Version 4 / Version 2
File size : 4.36 GiB
Duration : 2h 10mn
Overall bit rate : 4 774 Kbps
Movie name : Magnetto 83
Encoded date : UTC 2015-12-21 19:41:55
Writing application : mkvmerge v7.0.0 ('Where We Going') 64bit built on Jun 9 2014 15:16:27
Writing library : libebml v1.3.0 + libmatroska v1.4.1
Attachements : cover.jpg
DURATION : 02:10:51.648000000
NUMBER_OF_FRAMES : 245364
NUMBER_OF_BYTES : 439692288
_STATISTICS_WRITING_APP : mkvmerge v7.0.0 ('Where We Going') 64bit built on Jun 9 2014 15:16:27
_STATISTICS_WRITING_DATE_UTC : 2015-12-21 19:41:55
_STATISTICS_TAGS : BPS DURATION NUMBER_OF_FRAMES NUMBER_OF_BYTES

Video
ID : 1
Format : AVC
Format/Info : Advanced Video Codec
Format profile : High@L4.1
Format settings, CABAC : Yes
Format settings, ReFrames : 5 frames
Codec ID : V_MPEG4/ISO/AVC
Duration : 2h 10mn
Bit rate : 4 345 Kbps
Width : 1 920 pixels
Height : 804 pixels
Display aspect ratio : 2.40:1
Frame rate mode : Constant
Frame rate : 23.976 fps
Color space : YUV
Chroma subsampling : 4:2:0
Bit depth : 8 bits
Scan type : Progressive
Bits/(Pixel*Frame) : 0.117
Stream size : 3.87 GiB (89%)
Writing library : x264 core 146 r2538 121396c
Encoding settings : cabac=1 / ref=5 / deblock=1:-1:-1 / analyse=0x3:0x113 / me=umh / subme=9 / psy=1 / psy_rd=1.00:0.00 / mixed_ref=1 / me_range=32 / chroma_me=1 / trellis=2 / 8x8dct=1 / cqm=0 / deadzone=21,11 / fast_pskip=0 / chroma_qp_offset=-2 / threads=3 / lookahead_threads=1 / sliced_threads=0 / nr=0 / decimate=1 / interlaced=0 / bluray_compat=0 / constrained_intra=0 / bframes=8 / b_pyramid=2 / b_adapt=2 / b_bias=0 / direct=3 / weightb=1 / open_gop=0 / weightp=2 / keyint=250 / keyint_min=23 / scenecut=40 / intra_refresh=0 / rc_lookahead=60 / rc=2pass / mbtree=1 / bitrate=4345 / ratetol=1.0 / qcomp=0.60 / qpmin=0 / qpmax=69 / qpstep=4 / cplxblur=20.0 / qblur=0.5 / vbv_maxrate=14000 / vbv_bufsize=14000 / nal_hrd=none / filler=0 / ip_ratio=1.40 / aq=1:1.00
Default : Yes
Forced : No

Audio
ID : 5
Format : AC-3
Format/Info : Audio Coding 3
Mode extension : CM (complete main)
Format settings, Endianness : Big
Codec ID : A_AC3
Duration : 2h 10mn
Bit rate mode : Constant
Bit rate : 448 Kbps
Channel(s) : 6 channels
Channel positions : Front: L C R, Side: L R, LFE
Sampling rate : 48.0 KHz
Compression mode : Lossy
Stream size : 419 MiB (9%)
Title : Dub | DD 5.1 @ 448 kbps - BD EUR
Language : Russian
Default : Yes
Forced : No

Text #1
ID : 2
Format : UTF-8
Codec ID : S_TEXT/UTF8
Codec ID/Info : UTF-8 Plain Text
Title : Forced, Blu-ray 3D EUR
Language : Russian
Default : Yes
Forced : No

Text #2
ID : 3
Format : UTF-8
Codec ID : S_TEXT/UTF8
Codec ID/Info : UTF-8 Plain Text
Title : Blu-ray 3D EUR
Language : Russian
Default : No
Forced : No

Text #3
ID : 4
Format : UTF-8
Codec ID : S_TEXT/UTF8
Codec ID/Info : UTF-8 Plain Text
Language : English
Default : No
Forced : No

Menu
00:00:00.000 : en:00:00:00.000
00:03:54.734 : en:00:03:54.734
00:07:49.761 : en:00:07:49.761
00:14:28.034 : en:00:14:28.034
00:20:43.534 : en:00:20:43.534
00:26:18.160 : en:00:26:18.160
00:28:45.974 : en:00:28:45.974
00:37:46.473 : en:00:37:46.473
00:42:07.608 : en:00:42:07.608
00:50:33.614 : en:00:50:33.614
00:56:00.482 : en:00:56:00.482
01:05:09.864 : en:01:05:09.864
01:12:09.325 : en:01:12:09.325
01:18:21.030 : en:01:18:21.030
01:25:07.144 : en:01:25:07.144
01:32:55.653 : en:01:32:55.653
01:36:38.084 : en:01:36:38.084
01:39:49.442 : en:01:39:49.442
01:49:47.873 : en:01:49:47.873
01:55:41.685 : en:01:55:41.685
02:02:22.752 : en:02:02:22.752







Скачать Need.for.Speed.Жажда.скорости.Need.for.Speed.(Скотт.Во.Scott.Waugh).[2014.боевик.триллер.драма.криминал.BDRip][1080p][DUB][R.G.GoldenShara].torrent без регистрации
Золото ЗОЛОТАЯ РАЗДАЧА! СКАЧАННОЕ НЕ ЗАСЧИТЫВАЕТСЯ! Золото
Дата: Зарегистрирован   [ Тип: внутренний ] Как тут cкачать?
MAGNET ссылка
MAGNET ссылка


Скачать .torrent

11 KB

Статус: проверено
Скачан: торрент - 273 раз, раздача полностью - 57 раз
Размер: 4,36 GB
Оценка:  5 (Голосов: 6)
Поблагодарили: 14
Поделиться ссылкой на эту раздачу с друзьями:
В контактеFacebookОдноклассникиTwitterLivejournalМой МирLiveinternet
 

 

DimoNsteR

[] 

твое творение?
 

DimoNsteR

[] 

нужно добавить еще МедиаИнфо. Немного уменьшить скриншоты. И в самой верхней строке написать R.G. GoldenShara
 

Magnetto83

[] 

Да, моё. Простите меня, первый раз оформляю. Пока не разобрался что к чему!!! ah
 

DimoNsteR

[] 

Всё ок. Для образца посмотри наши рипы
 

Spartak911

[] 

Magnetto83
Я вас приветствую в новом амплуа!!! az
 

Magnetto83

[] 

Спасибо Spartak911!!!! А недооформление потихоньку исправлю!!!
 

DimoNsteR

[] 

могу помочь, а ты потом посмотришь. Или как. сам справишься?
 

Magnetto83

[] 

Буду очень признателен!!! az А скрины позже переделаю!!!! Проверь всё плиз!!!!
 

DimoNsteR

[] 

Я тебе немного помог. теперь давай сам. и статус проверено сделай свой.
 

Magnetto83

[] 

az DimoNsteR, Спасибо!!!! ay
 

DimoNsteR

[] 

Magnetto83 писал(а):

az DimoNsteR, Спасибо!!!! ay
да не за что
 

LORDKILL

[] 

Приятно, когда в нашем полку прибавляется! Приветствую тебя Magnetto83 az
 

SanCinema

[] 

Приветствуем Magnetto83, приветствуем в клуб релизёрства! bi az
Первый релиз, а уже глаз радует... так держать Magnetto83! ay
 

sobmaster

[] 

Magnetto83
Ну что, вроде всё чики-чики! ay Поздравляю с почином, дорогой коллега!!! az
 
Показать сообщения:    


Вы не можете начинать темы
Вы не можете отвечать на сообщения
Вы не можете редактировать свои сообщения
Вы не можете удалять свои сообщения
Вы не можете голосовать в опросах
Вы не можете прикреплять файлы к сообщениям
Вы можете скачивать файлы