Loading...
Error

Скачать Чародей / Spellbinder (сезон 01) (Ноэль Прайс) [1995, фантастика, фэнтези, приключения, семейный, DVDRip-AVC] [MVO]+[Engl] торрент без регистрации

 
Статистика раздачи
Размер:  14,55 GB   |    Скачан:  108 раз
Сидов:  1  [  242 KB/s  ]  
 
Автор Сообщение

МихаНЕзатор

[] 

Информация о фильме
Название: Чародей
Оригинальное название: Spellbinder
Год выхода: 1995
Жанр: фантастика, фэнтези, приключения, семейный
Режиссер: Ноэль Прайс

В ролях: Збых Трофимюк, Гося Петровска, Брайан Руни, Микела Нунан, Хезер Митчелл, Рафал Звеж, Кжиштоф Кумор, Эндрю МакФарлэйн, Анджей Грабарчик, Джорджина Фишер

Описание: Группа тинейджеров отправляется в лагерь, чтобы наблюдать солнечное затмение. Учитель показывает им пещеру, в которой по ночам появляются странные вспышки света. Ночью Пол и Алекс пытаются напугать одноклассницу Катрину и её подругу, протянув возле линии электропередач стальной провод, по которому Пол, как призрак, должен спуститься в простыне.

В результате короткого замыкания образовывается портал и Пол случайно попадает в параллельный мир, где правит группа людей, именуемых Чародеями. Чародеи обладают научными знаниями, которые они выдают необразованным крестьянам за волшебство. Чтобы снова попасть домой, Полу придётся доказать что он из другого мира и преодолеть множество трудностей, пройти которые ему поможет Риана — девочка из мира Чародеев.



Страна: Австралия, Польша
Продолжительность: 26x ~ 25 мин
Перевод: Профессиональный, многоголосый закадровый (Петербург 5 канал) + Оригинал

Файл
Формат: MKV
Качество: DVDRip-AVC
Видео: H.264, ~716x574@764x574 (~4:3, anamorphic), 25 fps, 2670 kbps avg, 0.260 bits/pixel
Аудио №1: AC3, 2 ch, 48 KHz, 256 Kbps [русский]
Аудио №2: AC3, 2 ch, 48 KHz, 192 Kbps [английский]

АНОНСЫ ПОПУЛЯРНЫХ РАЗДАЧ
General
Unique ID : 5098541771301887412554814371208795871 (0x3D5F1846EA8B1A7DDD522752E7E96DF)
Complete name : Spellbinder_s01e01.AVC.mkv
Format : Matroska
Format version : Version 2
File size : 569 MiB
Duration : 25mn 5s
Overall bit rate : 3 170 Kbps
Movie name : SpellbindeR s01e01 by Spellbinder-TV.org
Encoded date : UTC 2012-03-26 17:36:11
Writing application : mkvmerge v5.4.0 ('Piper') built on Mar 10 2012 13:14:01
Writing library : libebml v1.2.2 + libmatroska v1.3.0

Video
ID : 1
Format : AVC
Format/Info : Advanced Video Codec
Format profile : High@L3.1
Format settings, CABAC : Yes
Format settings, ReFrames : 6 frames
Codec ID : V_MPEG4/ISO/AVC
Duration : 25mn 5s
Bit rate : 2 659 Kbps
Width : 716 pixels
Height : 574 pixels
Display aspect ratio : 4:3
Original display aspect ratio : 5:4
Frame rate : 25.000 fps
Color space : YUV
Chroma subsampling : 4:2:0
Bit depth : 8 bits
Scan type : Progressive
Bits/(Pixel*Frame) : 0.259
Stream size : 477 MiB (84%)
Writing library : x264 core 122 r2183 c522ad1
Encoding settings : cabac=1 / ref=6 / deblock=1:-1:-1 / analyse=0x3:0x133 / me=umh / subme=10 / psy=1 / psy_rd=1.00:0.15 / mixed_ref=1 / me_range=24 / chroma_me=1 / trellis=2 / 8x8dct=1 / cqm=0 / deadzone=21,11 / fast_pskip=1 / chroma_qp_offset=-3 / threads=3 / sliced_threads=0 / nr=0 / decimate=1 / interlaced=0 / bluray_compat=0 / constrained_intra=0 / bframes=8 / b_pyramid=2 / b_adapt=2 / b_bias=0 / direct=3 / weightb=1 / open_gop=0 / weightp=2 / keyint=250 / keyint_min=25 / scenecut=40 / intra_refresh=0 / rc=crf / mbtree=0 / crf=18.0 / qcomp=0.60 / qpmin=0 / qpmax=69 / qpstep=4 / ip_ratio=1.40 / pb_ratio=1.30 / aq=1:1.00

Audio #1
ID : 2
Format : AC-3
Format/Info : Audio Coding 3
Mode extension : CM (complete main)
Codec ID : A_AC3
Duration : 25mn 5s
Bit rate mode : Constant
Bit rate : 256 Kbps
Channel(s) : 2 channels
Channel positions : Front: L R
Sampling rate : 48.0 KHz
Bit depth : 16 bits
Compression mode : Lossy
Stream size : 45.9 MiB (8%)
Language : Russian

Audio #2
ID : 3
Format : AC-3
Format/Info : Audio Coding 3
Mode extension : CM (complete main)
Codec ID : A_AC3
Duration : 25mn 5s
Bit rate mode : Constant
Bit rate : 192 Kbps
Channel(s) : 2 channels
Channel positions : Front: L R
Sampling rate : 48.0 KHz
Bit depth : 16 bits
Compression mode : Lossy
Stream size : 34.4 MiB (6%)
Language : English



Скачать Чародей.Spellbinder.(сезон.01).(Ноэль.Прайс).[1995.фантастика.фэнтези.приключения.семейный.DVDRip-AVC].[MVO]+[Engl].torrent без регистрации
Золото ЗОЛОТАЯ РАЗДАЧА! СКАЧАННОЕ НЕ ЗАСЧИТЫВАЕТСЯ! Золото
Дата: Зарегистрирован   [ Тип: внутренний ] Как тут cкачать?
MAGNET ссылка
MAGNET ссылка


Скачать .torrent

148 KB

Статус: проверено DHT
Скачан: торрент - 108 раз, раздача полностью - 25 раз
Размер: 14,55 GB
Оценка:  - (Голосов: 0)
Поблагодарили: 1
Поделиться ссылкой на эту раздачу с друзьями:
В контактеFacebookОдноклассникиTwitterLivejournalМой МирLiveinternet
 

 
Показать сообщения:    


Вы не можете начинать темы
Вы не можете отвечать на сообщения
Вы не можете редактировать свои сообщения
Вы не можете удалять свои сообщения
Вы не можете голосовать в опросах
Вы не можете прикреплять файлы к сообщениям
Вы можете скачивать файлы